8位机圣诞[简繁英字幕].8.Bit.Christmas.2021.2160p.HMAX.WEB-DL.DDP5.1.Atmos.HDR.x265-MOMOWEB 12.76GB

版主小s 9月前 308

✔资源类型:4K   ✔电影年份:2021   ✔电影地区:欧美   ✔电影分类:喜剧

◎标  题 8位机圣诞
◎译  名 8-Bit Christmas
◎片  名 8 Bit Christmas
◎年  代 2021
◎产  地 美国
◎类  别 喜剧 / 家庭
◎语  言 英语
◎上映日期 2021-11-24(美国网络)
◎IMDb评分 6.7/10 (8351人评价)
◎IMDb链接 https://www.imdb.com/title/tt11540284/
◎豆瓣评分 6.7/10 (203人评价)
◎豆瓣链接 https://movie.douban.com/subject/35384188/
◎导  演 迈克尔·道斯 Michael Dowse
◎编  剧 Kevin Jakubowski Kevin Jakubowski
◎演  员 尼尔·帕特里克·哈里斯 Neil Patrick Harris
       琼·黛安·拉斐尔 June Diane Raphael
       斯蒂夫·扎恩 Steve Zahn
       赛勒斯·阿诺德 Cyrus Arnold
       温斯洛·费格雷 Winslow Fegley
       桑蒂诺·巴纳德 Santino Barnard
       雅各布·拉瓦尔 Jacob Laval
       丹妮埃拉·伯尔冈 Danielle Bourgon
       大卫·麦金尼斯 David MacInnis
       迈克尔·戴森 Michael Dyson
       Kevin Dennis Kevin Dennis
        William Poulin

◎标  签 喜剧 / 美国 / 2021 / 圣诞 / 小霸王 / 电影 / D迈克尔·道斯 / WK

◎简  介
  新线影业开发的喜剧片[八比特圣诞](8-Bit Christmas,暂译)已经开拍。影片由尼尔·帕特里克·哈里斯、温斯洛·费格雷、琼·黛安·拉斐尔、斯蒂夫·扎恩主演,迈克尔·道斯([冰球坏小子])执导,凯文·雅库波斯基操刀剧本。                                    
                                该片根据凯文·雅库波斯基撰写的同名小说改编,故事以20世纪80年代末的芝加哥郊区为背景,讲述了10岁的杰克·多伊尔(费格雷饰)为了得到最好、最新的圣诞电子游戏开始艰难的挑战。哈里斯扮演成年后的杰克·多伊尔,同时也担任该片旁白。拉斐尔和扎恩饰演杰克·多伊尔小时候的父母凯西和约翰
  1. ##### MediaInfo ######
  2. General
  3. Unique ID                                : 70157871041216073829711273668800676765 (0x34C7EA1A86F96EF7ED0A62966968039D)
  4. Complete name                            : 8.Bit.Christmas.2021.2160p.HMAX.WEB-DL.DDP5.1.Atmos.HDR.x265-MOMOWEB.mkv
  5. Format                                   : Matroska
  6. Format version                           : Version 4
  7. File size                                : 12.8 GiB
  8. Duration                                 : 1 h 37 min
  9. Overall bit rate                         : 18.7 Mb/s
  10. Movie name                               : 8.Bit.Christmas.2021.2160p.HMAX.WEB-DL.DDP5.1.Atmos.HDR.x265-PTerWEB
  11. Encoded date                             : UTC 2022-12-15 15:34:23
  12. Writing application                      : mkvmerge v72.0.0 ('Minuano (Six-eight)') 64-bit
  13. Writing library                          : libebml v1.4.4 + libmatroska v1.7.1

  14. Video
  15. ID                                       : 1
  16. Format                                   : HEVC
  17. Format/Info                              : High Efficiency Video Coding
  18. Format profile                           : Main 10@L5@Main
  19. HDR format                               : SMPTE ST 2086, HDR10 compatible
  20. Codec ID                                 : V_MPEGH/ISO/HEVC
  21. Duration                                 : 1 h 37 min
  22. Bit rate                                 : 17.9 Mb/s
  23. Width                                    : 3 840 pixels
  24. Height                                   : 2 160 pixels
  25. Display aspect ratio                     : 16:9
  26. Frame rate mode                          : Constant
  27. Frame rate                               : 23.976 (24000/1001) FPS
  28. Color space                              : YUV
  29. Chroma subsampling                       : 4:2:0
  30. Bit depth                                : 10 bits
  31. Bits/(Pixel*Frame)                       : 0.090
  32. Stream size                              : 12.2 GiB (96%)
  33. Writing library                          : x265 3.4hy:[Linux][GCC 7.5.0][64 bit] 10bit
  34. Encoding settings                        : cpuid=1111039 / frame-threads=1 / wpp / no-pmode / no-pme / no-psnr / no-ssim / log-level=2 / input-csp=1 / input-res=3840x2160 / interlace=0 / total-frames=0 / level-idc=0 / high-tier=1 / uhd-bd=0 / ref=4 / no-allow-non-conformance / repeat-headers / annexb / no-aud / no-hrd / info / hash=0 / no-temporal-layers / no-open-gop / min-keyint=96 / keyint=96 / gop-lookahead=0 / bframes=3 / b-adapt=2 / b-pyramid / bframe-bias=0 / rc-lookahead=25 / lookahead-slices=4 / scenecut=40 / hist-scenecut=0 / radl=0 / no-splice / no-intra-refresh / ctu=64 / min-cu-size=8 / rect / no-amp / max-tu-size=32 / tu-inter-depth=1 / tu-intra-depth=1 / limit-tu=0 / rdoq-level=2 / dynamic-rd=0.00 / no-ssim-rd / signhide / no-tskip / nr-intra=0 / nr-inter=0 / no-constrained-intra / strong-intra-smoothing / max-merge=3 / limit-refs=3 / limit-modes / me=3 / subme=3 / merange=57 / temporal-mvp / no-frame-dup / no-hme / weightp / no-weightb / no-analyze-src-pics / deblock=0:0 / sao / no-sao-non-deblock / rd=4 / selective-sao=4 / no-early-skip / rskip / no-fast-intra / no-tskip-fast / no-cu-lossless / no-b-intra / no-splitrd-skip / rdpenalty=0 / psy-rd=2.00 / psy-rdoq=1.00 / no-rd-refine / no-lossless / cbqpoffs=0 / crqpoffs=0 / rc=abr / bitrate=18000 / qcomp=0.60 / qpstep=4 / stats-write=0 / stats-read=2 / cplxblur=20.0 / qblur=0.5 / vbv-maxrate=24500 / vbv-bufsize=24500 / vbv-init=0.6 / vbv-end=0.6 / vbv-end-fr-adj=0.0 / ipratio=1.40 / pbratio=1.30 / aq-mode=2 / aq-strength=1.00 / cutree / zone-count=0 / no-strict-cbr / qg-size=32 / no-rc-grain / qpmax=69 / qpmin=0 / no-const-vbv / sar=0 / overscan=0 / videoformat=5 / range=0 / colorprim=9 / transfer=16 / colormatrix=9 / chromaloc=0 / display-window=0 / master-display=G(13250,34500)B(7500,3000)R(34000,16000)WP(15635,16450)L(10000000,1) / cll=215,106 / min-luma=0 / max-luma=1023 / log2-max-poc-lsb=8 / vui-timing-info / vui-hrd-info / no-concatenation / slices=1 / no-opt-qp-pps / no-opt-ref-list-length-pps / no-multi-pass-opt-rps / scenecut-bias=0.05 / hist-threshold=0.01 / no-opt-cu-delta-qp / no-aq-motion / hdr10 / no-hdr10-opt / no-dhdr10-opt / no-idr-recovery-sei / analysis-reuse-level=0 / analysis-save-reuse-level=0 / analysis-load-reuse-level=0 / scale-factor=0 / refine-intra=0 / refine-inter=0 / refine-mv=1 / refine-ctu-distortion=0 / no-limit-sao / ctu-info=0 / no-lowpass-dct / refine-analysis-type=0 / copy-pic=1 / max-ausize-factor=1.0 / no-dynamic-refine / no-single-sei / no-hevc-aq / no-svt / no-field / qp-adaptation-range=1.00 / no-scenecut-aware-qpconformance-window-offsets / right=0 / bottom=0 / decoder-max-rate=0
  35. Default                                  : Yes
  36. Forced                                   : No
  37. Color range                              : Limited
  38. Color primaries                          : BT.2020
  39. Transfer characteristics                 : PQ
  40. Matrix coefficients                      : BT.2020 non-constant
  41. Mastering display color primaries        : Display P3
  42. Mastering display luminance              : min: 0.0001 cd/m2, max: 1000 cd/m2
  43. Maximum Content Light Level              : 215 cd/m2
  44. Maximum Frame-Average Light Level        : 106 cd/m2

  45. Audio
  46. ID                                       : 2
  47. Format                                   : E-AC-3 JOC
  48. Format/Info                              : Enhanced AC-3 with Joint Object Coding
  49. Commercial name                          : Dolby Digital Plus with Dolby Atmos
  50. Codec ID                                 : A_EAC3
  51. Duration                                 : 1 h 37 min
  52. Bit rate mode                            : Constant
  53. Bit rate                                 : 768 kb/s
  54. Channel(s)                               : 6 channels
  55. Channel layout                           : L R C LFE Ls Rs
  56. Sampling rate                            : 48.0 kHz
  57. Frame rate                               : 31.250 FPS (1536 SPF)
  58. Compression mode                         : Lossy
  59. Delay relative to video                  : -83 ms
  60. Stream size                              : 537 MiB (4%)
  61. Language                                 : English
  62. Service kind                             : Complete Main
  63. Default                                  : Yes
  64. Forced                                   : No
  65. Complexity index                         : 16
  66. Number of dynamic objects                : 15
  67. Bed channel count                        : 1 channel
  68. Bed channel configuration                : LFE

  69. Text #1
  70. ID                                       : 3
  71. Format                                   : UTF-8
  72. Codec ID                                 : S_TEXT/UTF8
  73. Codec ID/Info                            : UTF-8 Plain Text
  74. Duration                                 : 1 h 37 min
  75. Bit rate                                 : 138 b/s
  76. Count of elements                        : 1968
  77. Stream size                              : 99.1 KiB (0%)
  78. Language                                 : Bulgarian
  79. Default                                  : No
  80. Forced                                   : No

  81. Text #2
  82. ID                                       : 4
  83. Format                                   : UTF-8
  84. Codec ID                                 : S_TEXT/UTF8
  85. Codec ID/Info                            : UTF-8 Plain Text
  86. Duration                                 : 1 h 32 min
  87. Bit rate                                 : 78 b/s
  88. Count of elements                        : 1964
  89. Stream size                              : 53.2 KiB (0%)
  90. Language                                 : Czech
  91. Default                                  : No
  92. Forced                                   : No

  93. Text #3
  94. ID                                       : 5
  95. Format                                   : UTF-8
  96. Codec ID                                 : S_TEXT/UTF8
  97. Codec ID/Info                            : UTF-8 Plain Text
  98. Duration                                 : 1 h 32 min
  99. Bit rate                                 : 86 b/s
  100. Count of elements                        : 1962
  101. Stream size                              : 58.3 KiB (0%)
  102. Language                                 : Danish
  103. Default                                  : No
  104. Forced                                   : No

  105. Text #4
  106. ID                                       : 6
  107. Format                                   : UTF-8
  108. Codec ID                                 : S_TEXT/UTF8
  109. Codec ID/Info                            : UTF-8 Plain Text
  110. Duration                                 : 1 h 31 min
  111. Bit rate                                 : 97 b/s
  112. Count of elements                        : 2061
  113. Stream size                              : 65.2 KiB (0%)
  114. Title                                    : SDH
  115. Language                                 : English
  116. Default                                  : No
  117. Forced                                   : No

  118. Text #5
  119. ID                                       : 7
  120. Format                                   : UTF-8
  121. Codec ID                                 : S_TEXT/UTF8
  122. Codec ID/Info                            : UTF-8 Plain Text
  123. Duration                                 : 1 h 33 min
  124. Bit rate                                 : 96 b/s
  125. Count of elements                        : 2158
  126. Stream size                              : 66.1 KiB (0%)
  127. Title                                    : Latinoamérica SDH
  128. Language                                 : Spanish
  129. Default                                  : No
  130. Forced                                   : No

  131. Text #6
  132. ID                                       : 8
  133. Format                                   : UTF-8
  134. Codec ID                                 : S_TEXT/UTF8
  135. Codec ID/Info                            : UTF-8 Plain Text
  136. Duration                                 : 1 h 37 min
  137. Bit rate                                 : 81 b/s
  138. Count of elements                        : 1964
  139. Stream size                              : 58.4 KiB (0%)
  140. Title                                    : Latinoamérica
  141. Language                                 : Spanish
  142. Default                                  : No
  143. Forced                                   : No

  144. Text #7
  145. ID                                       : 9
  146. Format                                   : UTF-8
  147. Codec ID                                 : S_TEXT/UTF8
  148. Codec ID/Info                            : UTF-8 Plain Text
  149. Duration                                 : 1 h 33 min
  150. Bit rate                                 : 87 b/s
  151. Count of elements                        : 1813
  152. Stream size                              : 60.0 KiB (0%)
  153. Title                                    : Espa?a
  154. Language                                 : Spanish
  155. Default                                  : No
  156. Forced                                   : No

  157. Text #8
  158. ID                                       : 10
  159. Format                                   : UTF-8
  160. Codec ID                                 : S_TEXT/UTF8
  161. Codec ID/Info                            : UTF-8 Plain Text
  162. Duration                                 : 1 h 37 min
  163. Bit rate                                 : 71 b/s
  164. Count of elements                        : 1958
  165. Stream size                              : 51.1 KiB (0%)
  166. Language                                 : Estonian
  167. Default                                  : No
  168. Forced                                   : No

  169. Text #9
  170. ID                                       : 11
  171. Format                                   : UTF-8
  172. Codec ID                                 : S_TEXT/UTF8
  173. Codec ID/Info                            : UTF-8 Plain Text
  174. Duration                                 : 1 h 37 min
  175. Bit rate                                 : 67 b/s
  176. Count of elements                        : 1947
  177. Stream size                              : 48.5 KiB (0%)
  178. Language                                 : Finnish
  179. Default                                  : No
  180. Forced                                   : No

  181. Text #10
  182. ID                                       : 12
  183. Format                                   : UTF-8
  184. Codec ID                                 : S_TEXT/UTF8
  185. Codec ID/Info                            : UTF-8 Plain Text
  186. Duration                                 : 1 h 37 min
  187. Bit rate                                 : 77 b/s
  188. Count of elements                        : 1963
  189. Stream size                              : 55.1 KiB (0%)
  190. Language                                 : Croatian
  191. Default                                  : No
  192. Forced                                   : No

  193. Text #11
  194. ID                                       : 13
  195. Format                                   : UTF-8
  196. Codec ID                                 : S_TEXT/UTF8
  197. Codec ID/Info                            : UTF-8 Plain Text
  198. Duration                                 : 1 h 37 min
  199. Bit rate                                 : 82 b/s
  200. Count of elements                        : 1962
  201. Stream size                              : 58.9 KiB (0%)
  202. Language                                 : Hungarian
  203. Default                                  : No
  204. Forced                                   : No

  205. Text #12
  206. ID                                       : 14
  207. Format                                   : UTF-8
  208. Codec ID                                 : S_TEXT/UTF8
  209. Codec ID/Info                            : UTF-8 Plain Text
  210. Duration                                 : 1 h 37 min
  211. Bit rate                                 : 81 b/s
  212. Count of elements                        : 1965
  213. Stream size                              : 58.1 KiB (0%)
  214. Language                                 : Icelandic
  215. Default                                  : No
  216. Forced                                   : No

  217. Text #13
  218. ID                                       : 15
  219. Format                                   : UTF-8
  220. Codec ID                                 : S_TEXT/UTF8
  221. Codec ID/Info                            : UTF-8 Plain Text
  222. Duration                                 : 1 h 37 min
  223. Bit rate                                 : 81 b/s
  224. Count of elements                        : 1965
  225. Stream size                              : 58.1 KiB (0%)
  226. Language                                 : Latvian
  227. Default                                  : No
  228. Forced                                   : No

  229. Text #14
  230. ID                                       : 16
  231. Format                                   : UTF-8
  232. Codec ID                                 : S_TEXT/UTF8
  233. Codec ID/Info                            : UTF-8 Plain Text
  234. Duration                                 : 1 h 32 min
  235. Bit rate                                 : 141 b/s
  236. Count of elements                        : 1957
  237. Stream size                              : 95.9 KiB (0%)
  238. Language                                 : Macedonian
  239. Default                                  : No
  240. Forced                                   : No

  241. Text #15
  242. ID                                       : 17
  243. Format                                   : UTF-8
  244. Codec ID                                 : S_TEXT/UTF8
  245. Codec ID/Info                            : UTF-8 Plain Text
  246. Duration                                 : 1 h 37 min
  247. Bit rate                                 : 81 b/s
  248. Count of elements                        : 1930
  249. Stream size                              : 58.2 KiB (0%)
  250. Language                                 : Dutch
  251. Default                                  : No
  252. Forced                                   : No

  253. Text #16
  254. ID                                       : 18
  255. Format                                   : UTF-8
  256. Codec ID                                 : S_TEXT/UTF8
  257. Codec ID/Info                            : UTF-8 Plain Text
  258. Duration                                 : 1 h 32 min
  259. Bit rate                                 : 80 b/s
  260. Count of elements                        : 1961
  261. Stream size                              : 54.5 KiB (0%)
  262. Language                                 : Norwegian
  263. Default                                  : No
  264. Forced                                   : No

  265. Text #17
  266. ID                                       : 19
  267. Format                                   : UTF-8
  268. Codec ID                                 : S_TEXT/UTF8
  269. Codec ID/Info                            : UTF-8 Plain Text
  270. Duration                                 : 1 h 37 min
  271. Bit rate                                 : 84 b/s
  272. Count of elements                        : 1942
  273. Stream size                              : 60.3 KiB (0%)
  274. Language                                 : Polish
  275. Default                                  : No
  276. Forced                                   : No

  277. Text #18
  278. ID                                       : 20
  279. Format                                   : UTF-8
  280. Codec ID                                 : S_TEXT/UTF8
  281. Codec ID/Info                            : UTF-8 Plain Text
  282. Duration                                 : 1 h 37 min
  283. Bit rate                                 : 79 b/s
  284. Count of elements                        : 1953
  285. Stream size                              : 56.9 KiB (0%)
  286. Language                                 : Portuguese
  287. Default                                  : No
  288. Forced                                   : No

  289. Text #19
  290. ID                                       : 21
  291. Format                                   : UTF-8
  292. Codec ID                                 : S_TEXT/UTF8
  293. Codec ID/Info                            : UTF-8 Plain Text
  294. Duration                                 : 1 h 32 min
  295. Bit rate                                 : 84 b/s
  296. Count of elements                        : 1937
  297. Stream size                              : 57.3 KiB (0%)
  298. Language                                 : Portuguese
  299. Default                                  : No
  300. Forced                                   : No

  301. Text #20
  302. ID                                       : 22
  303. Format                                   : UTF-8
  304. Codec ID                                 : S_TEXT/UTF8
  305. Codec ID/Info                            : UTF-8 Plain Text
  306. Duration                                 : 1 h 32 min
  307. Bit rate                                 : 85 b/s
  308. Count of elements                        : 1942
  309. Stream size                              : 58.1 KiB (0%)
  310. Language                                 : Romanian
  311. Default                                  : No
  312. Forced                                   : No

  313. Text #21
  314. ID                                       : 23
  315. Format                                   : UTF-8
  316. Codec ID                                 : S_TEXT/UTF8
  317. Codec ID/Info                            : UTF-8 Plain Text
  318. Duration                                 : 1 h 37 min
  319. Bit rate                                 : 78 b/s
  320. Count of elements                        : 1953
  321. Stream size                              : 56.0 KiB (0%)
  322. Language                                 : Slovak
  323. Default                                  : No
  324. Forced                                   : No

  325. Text #22
  326. ID                                       : 24
  327. Format                                   : UTF-8
  328. Codec ID                                 : S_TEXT/UTF8
  329. Codec ID/Info                            : UTF-8 Plain Text
  330. Duration                                 : 1 h 32 min
  331. Bit rate                                 : 80 b/s
  332. Count of elements                        : 1965
  333. Stream size                              : 54.6 KiB (0%)
  334. Language                                 : Slovenian
  335. Default                                  : No
  336. Forced                                   : No

  337. Text #23
  338. ID                                       : 25
  339. Format                                   : UTF-8
  340. Codec ID                                 : S_TEXT/UTF8
  341. Codec ID/Info                            : UTF-8 Plain Text
  342. Duration                                 : 1 h 32 min
  343. Bit rate                                 : 79 b/s
  344. Count of elements                        : 1960
  345. Stream size                              : 53.5 KiB (0%)
  346. Language                                 : Serbian
  347. Default                                  : No
  348. Forced                                   : No

  349. Text #24
  350. ID                                       : 26
  351. Format                                   : UTF-8
  352. Codec ID                                 : S_TEXT/UTF8
  353. Codec ID/Info                            : UTF-8 Plain Text
  354. Duration                                 : 1 h 37 min
  355. Bit rate                                 : 80 b/s
  356. Count of elements                        : 1932
  357. Stream size                              : 57.7 KiB (0%)
  358. Language                                 : Swedish
  359. Default                                  : No
  360. Forced                                   : No

  361. Text #25
  362. ID                                       : 27
  363. Format                                   : UTF-8
  364. Codec ID                                 : S_TEXT/UTF8
  365. Codec ID/Info                            : UTF-8 Plain Text
  366. Duration                                 : 1 h 32 min
  367. Bit rate                                 : 81 b/s
  368. Count of elements                        : 1971
  369. Stream size                              : 54.9 KiB (0%)
  370. Title                                    : 中文(简体)
  371. Language                                 : Chinese
  372. Default                                  : No
  373. Forced                                   : No

  374. Text #26
  375. ID                                       : 28
  376. Format                                   : UTF-8
  377. Codec ID                                 : S_TEXT/UTF8
  378. Codec ID/Info                            : UTF-8 Plain Text
  379. Duration                                 : 1 h 32 min
  380. Bit rate                                 : 84 b/s
  381. Count of elements                        : 1977
  382. Stream size                              : 56.9 KiB (0%)
  383. Title                                    : 中文(繁體)
  384. Language                                 : Chinese
  385. Default                                  : No
  386. Forced                                   : No




下载地址:

8.Bit.Christmas.2021.2160p.HMAX.WEB-DL.DDP5.1.Atmos.HDR.x265-MOMOWEB.torrent

BT9527电影天堂 1、BT9527电影天堂提供的BT文件均来源于互联网抓取,只供网友学习交流、技术提升使用。
2、我们遵守BitTorrent点对点协议原则,任何版权问题请联系原资源发布商,我们不处理任何版权纠纷,谢谢!如有争议请联系邮箱:BT9527#hotmail.com(#换成@)
3、如果您发现某页面或地址有错误,请联系站长邮箱BT9527#hotmail.com(#换成@),我们会尽快处理。您的热心是对BT9527电影天堂最大的支持。
4、本站建议去正规影院观看电影以支持电影行业发展。
最新回复 (0)

你可以在 登录 or 注册 后,对此帖发表评论!

返回