黑豹[国英多音轨/中文字幕].Black.Panther.2018.BluRay.1080p.DTS-HDMA7.1.2Audio.x265.10bit-DreamHD 10.13GB

版主小s 9月前 612

✔资源类型:暂未分类   ✔电影年份:2018   ✔电影地区:欧美   ✔电影分类:动作

◎标  题 黑豹
◎片  名 Black Panther
◎年  代 2018
◎产  地 美国 / 南非
◎类  别 动作 / 科幻 / 冒险
◎语  言 英语 / 斯瓦希里语 / 科萨语 / 韩语
◎上映日期 2018-03-09(中国大陆) / 2018-02-16(美国)
◎IMDb评分 7.3/10 (690514人评价)
◎IMDb链接 https://www.imdb.com/title/tt1825683/
◎豆瓣评分 6.5/10 (411184人评价)
◎豆瓣链接 https://movie.douban.com/subject/6390825/
◎片  长 134分钟
◎导  演 瑞恩·库格勒 Ryan Coogler
◎编  剧 瑞恩·库格勒 Ryan Coogler
       乔·罗伯特·科尔 Joe Robert Cole
       斯坦·李 Stan Lee
       杰克·科比 Jack Kirby
◎演  员 查德维克·博斯曼 Chadwick Boseman
       露皮塔·尼永奥 Lupita Nyong'o
       迈克尔·B·乔丹 Michael B. Jordan
       丹娜·奎里拉 Danai Gurira
       马丁·弗瑞曼 Martin Freeman
       丹尼尔·卡卢亚 Daniel Kaluuya
       利蒂希娅·赖特 Letitia Wright
       温斯顿·杜克 Winston Duke
       斯特林·K·布朗 Sterling K. Brown
       安吉拉·贝塞特 Angela Bassett
       福里斯特·惠特克 Forest Whitaker
       安迪·瑟金斯 Andy Serkis
       弗洛伦丝·卡松巴 Florence Kasumba
       约翰·卡尼 John Kani
       大卫·S·李 David S. Lee
       娜比娅·毕 Nabiyah Be
       斯坦·李 Stan Lee
       阿特达万·卡尼 Atandwa Kani
       塞巴斯蒂安·斯坦 Sebastian Stan
       丹尼·萨帕尼 Danny Sapani
       艾利克斯·希伯特 Alex R. Hibbert
       伊丽莎白艾尔金斯 Elizabeth Elkins
       Sasha Morfaw Sasha Morfaw
       班巴德贾恩·班巴 Bambadjan Bamba
       丹泽尔·惠特克 Denzel Whitaker
       西黛尔·诺尔 Sydelle Noel
       伊萨赫·德·班克尔 Isaach De Bankolé
       香奈特·芮妮·威尔逊 Shaunette Renée Wilson
       斯坦·李 Stan Lee
       凯文·费奇 Kevin Feige
       音浪 Sounwave
       肯德里克·拉马尔 Kendrick Lamar
       安东尼·蒂菲斯 Anthony Tiffith
       路德维格·戈兰松 Ludwig Göransson
       诗莎 SZA
       瑞秋·莫里森 Rachel Morrison
       Jerad Marantz Jerad Marantz
       杰·哈特 Jay Hart
       汉娜·比奇勒 Hannah Beachler
       露丝·E·卡特 Ruth E. Carter
       劳拉·丹德里奇 Laura Dandridge
       本杰明·A·贝尔特 Benjamin A. Burtt
       史蒂夫·博得德克 Steve Boeddeker
       彼得·J·戴夫林 Peter J. Devlin
       布兰登·普罗克特 Brandon Proctor
       伊万·雅格布斯 Evan Jacobs
       奥·布里克 Ed Ulbrich
       瑞恩·艾伦 Ryan Allen
       杰西卡卡林顿 Jessica Carrington
       丹尼尔·萨迪克 Daniel Sudick
       迈克尔·狄龙 Michael Dillon
       罗布·荷兰 Rob Holland
       拉斐尔·皮门特尔 Raphael A. Pimentel
       达里尔·索丘克 Daryl Sawchuk
       乔纳森·希克曼 Jonathan Hickman

◎标  签 漫威 / 超级英雄 / 科幻 / 美国 / 动作 / 2018 / 漫画改编 / 非洲

◎简  介
  位于非洲的神秘国家瓦坎达,凭借来自宇宙的振金而成为科技极度发达的国家,不过他们长久封闭,始终对外界保守这个秘密。在前国王死于联合国爆炸袭击后,特查拉王子(查德维克·博斯曼 Chadwick Boseman 饰)继任成为新的国王,同时他也是黑豹的继承者。登基之后,特查拉与前女友娜吉雅(露皮塔·尼永奥 Lupita Nyong'o 饰)、贴身侍卫奥姆烨(丹娜·奎里拉 Danai Gurira 饰)追查曾经盗取振金并杀害瓦坎达人的尤利西斯·克劳(安迪·瑟金斯 Andy Serkis 饰)。一番厮杀后,克劳侥幸逃脱,谁知最终死于合伙人艾瑞克·克尔芒戈(迈克尔·B·乔丹 Michael B. Jordan 饰)之手。艾瑞克同样具有瓦坎达血统,而且当年他的父亲死在了自己的兄弟——特查拉父亲的手中。                                    
                                怀着莫大的仇恨,艾瑞克踏足瓦坎达,去争夺至高无上的王位……
  1. ##### MediaInfo ######
  2. General
  3. Unique ID                                : 41461237564790390684747999515224530982 (0x1F3124D659E1EAB51D1CE8FA320F6026)
  4. Complete name                            : Black.Panther.2018.BluRay.1080p.DTS-HDMA7.1.2Audio.x265.10bit-DreamHD.mkv
  5. Format                                   : Matroska
  6. Format version                           : Version 4
  7. File size                                : 10.1 GiB
  8. Duration                                 : 2 h 14 min
  9. Overall bit rate mode                    : Variable
  10. Overall bit rate                         : 10.8 Mb/s
  11. Encoded date                             : UTC 2018-05-03 05:31:48
  12. Writing application                      : mkvmerge v23.0.0 ('The Bride Said No') 64-bit
  13. Writing library                          : libebml v1.3.6 + libmatroska v1.4.9

  14. Video
  15. ID                                       : 1
  16. Format                                   : HEVC
  17. Format/Info                              : High Efficiency Video Coding
  18. Format profile                           : Main 10@L4@Main
  19. Codec ID                                 : V_MPEGH/ISO/HEVC
  20. Duration                                 : 2 h 14 min
  21. Bit rate                                 : 5 157 kb/s
  22. Width                                    : 1 920 pixels
  23. Height                                   : 804 pixels
  24. Display aspect ratio                     : 2.40:1
  25. Frame rate mode                          : Constant
  26. Frame rate                               : 23.976 (24000/1001) FPS
  27. Original frame rate                      : 23.976 (23976/1000) FPS
  28. Color space                              : YUV
  29. Chroma subsampling                       : 4:2:0
  30. Bit depth                                : 10 bits
  31. Bits/(Pixel*Frame)                       : 0.139
  32. Stream size                              : 4.85 GiB (48%)
  33. Writing library                          : x265 2.7+15-b9f5b5d7bf95:[Windows][MSVC 1800][64 bit] 10bit
  34. Encoding settings                        : cpuid=1173503 / frame-threads=3 / numa-pools=8 / wpp / no-pmode / no-pme / no-psnr / no-ssim / log-level=2 / input-csp=1 / input-res=1920x804 / interlace=0 / total-frames=0 / level-idc=0 / high-tier=1 / uhd-bd=0 / ref=6 / no-allow-non-conformance / repeat-headers / annexb / no-aud / no-hrd / info / hash=0 / no-temporal-layers / no-open-gop / min-keyint=23 / keyint=250 / gop-lookahead=0 / bframes=8 / b-adapt=2 / b-pyramid / bframe-bias=0 / rc-lookahead=24 / lookahead-slices=5 / scenecut=40 / radl=0 / no-intra-refresh / ctu=64 / min-cu-size=8 / no-rect / no-amp / max-tu-size=32 / tu-inter-depth=1 / tu-intra-depth=1 / limit-tu=0 / rdoq-level=0 / dynamic-rd=0.00 / no-ssim-rd / signhide / no-tskip / nr-intra=0 / nr-inter=0 / no-constrained-intra / no-strong-intra-smoothing / max-merge=2 / limit-refs=3 / no-limit-modes / me=2 / subme=7 / merange=48 / temporal-mvp / weightp / weightb / no-analyze-src-pics / deblock=0:0 / sao / no-sao-non-deblock / rd=4 / no-early-skip / rskip / no-fast-intra / no-tskip-fast / no-cu-lossless / no-b-intra / no-splitrd-skip / rdpenalty=0 / psy-rd=2.00 / psy-rdoq=0.00 / no-rd-refine / no-lossless / cbqpoffs=0 / crqpoffs=0 / rc=crf / crf=17.0 / qcomp=0.60 / qpstep=4 / stats-write=0 / stats-read=0 / ipratio=1.40 / pbratio=1.30 / aq-mode=3 / aq-strength=1.00 / cutree / zone-count=0 / no-strict-cbr / qg-size=32 / no-rc-grain / qpmax=69 / qpmin=0 / no-const-vbv / sar=0 / overscan=0 / videoformat=5 / range=0 / colorprim=2 / transfer=2 / colormatrix=2 / chromaloc=0 / display-window=0 / max-cll=0,0 / min-luma=0 / max-luma=1023 / log2-max-poc-lsb=8 / vui-timing-info / vui-hrd-info / slices=1 / no-opt-qp-pps / no-opt-ref-list-length-pps / no-multi-pass-opt-rps / scenecut-bias=0.05 / no-opt-cu-delta-qp / aq-motion / no-hdr / no-hdr-opt / no-dhdr10-opt / no-idr-recovery-sei / analysis-reuse-level=5 / scale-factor=0 / refine-intra=0 / refine-inter=0 / refine-mv=0 / no-limit-sao / ctu-info=0 / no-lowpass-dct / refine-mv-type=0 / copy-pic=1 / max-ausize-factor=1.0 / no-dynamic-refine
  35. Language                                 : English
  36. Default                                  : Yes
  37. Forced                                   : No

  38. Audio #1
  39. ID                                       : 2
  40. Format                                   : DTS XLL
  41. Format/Info                              : Digital Theater Systems
  42. Commercial name                          : DTS-HD Master Audio
  43. Codec ID                                 : A_DTS
  44. Duration                                 : 2 h 14 min
  45. Bit rate mode                            : Variable
  46. Bit rate                                 : 4 981 kb/s
  47. Channel(s)                               : 8 channels
  48. Channel layout                           : C L R LFE Lb Rb Lss Rss
  49. Sampling rate                            : 48.0 kHz
  50. Frame rate                               : 93.750 FPS (512 SPF)
  51. Bit depth                                : 24 bits
  52. Compression mode                         : Lossless
  53. Stream size                              : 4.68 GiB (46%)
  54. Language                                 : English
  55. Default                                  : Yes
  56. Forced                                   : No

  57. Audio #2
  58. ID                                       : 3
  59. Format                                   : AC-3
  60. Format/Info                              : Audio Coding 3
  61. Commercial name                          : Dolby Digital
  62. Codec ID                                 : A_AC3
  63. Duration                                 : 2 h 14 min
  64. Bit rate mode                            : Constant
  65. Bit rate                                 : 640 kb/s
  66. Channel(s)                               : 6 channels
  67. Channel layout                           : L R C LFE Ls Rs
  68. Sampling rate                            : 48.0 kHz
  69. Frame rate                               : 31.250 FPS (1536 SPF)
  70. Compression mode                         : Lossy
  71. Stream size                              : 616 MiB (6%)
  72. Language                                 : Chinese
  73. Service kind                             : Complete Main
  74. Default                                  : No
  75. Forced                                   : No

  76. Text
  77. ID                                       : 4
  78. Format                                   : ASS
  79. Codec ID                                 : S_TEXT/ASS
  80. Codec ID/Info                            : Advanced Sub Station Alpha
  81. Duration                                 : 2 h 14 min
  82. Bit rate                                 : 178 b/s
  83. Count of elements                        : 1585
  84. Compression mode                         : Lossless
  85. Stream size                              : 175 KiB (0%)
  86. Language                                 : Chinese
  87. Default                                  : Yes
  88. Forced                                   : No

  89. Menu
  90. 00:00:00.000                             : en:00:00:00.000
  91. 00:06:56.291                             : en:00:06:56.291
  92. 00:12:02.805                             : en:00:12:02.805
  93. 00:19:12.360                             : en:00:19:12.360
  94. 00:28:32.961                             : en:00:28:32.961
  95. 00:33:11.698                             : en:00:33:11.698
  96. 00:40:57.497                             : en:00:40:57.497
  97. 00:48:34.036                             : en:00:48:34.036
  98. 00:53:46.098                             : en:00:53:46.098
  99. 01:01:57.339                             : en:01:01:57.339
  100. 01:08:33.026                             : en:01:08:33.026
  101. 01:16:46.769                             : en:01:16:46.769
  102. 01:22:24.022                             : en:01:22:24.022
  103. 01:31:21.434                             : en:01:31:21.434
  104. 01:41:15.361                             : en:01:41:15.361
  105. 01:50:56.483                             : en:01:50:56.483
  106. 01:59:16.941                             : en:01:59:16.941
  107. 02:02:43.648                             : en:02:02:43.648




下载地址:

Black.Panther.2018.BluRay.1080p.DTS-HDMA7.1.2Audio.x265.10bit-DreamHD.torrent

BT9527电影天堂 1、BT9527电影天堂提供的BT文件均来源于互联网抓取,只供网友学习交流、技术提升使用。
2、我们遵守BitTorrent点对点协议原则,任何版权问题请联系原资源发布商,我们不处理任何版权纠纷,谢谢!如有争议请联系邮箱:BT9527#hotmail.com(#换成@)
3、如果您发现某页面或地址有错误,请联系站长邮箱BT9527#hotmail.com(#换成@),我们会尽快处理。您的热心是对BT9527电影天堂最大的支持。
4、本站建议去正规影院观看电影以支持电影行业发展。
最新回复 (0)

你可以在 登录 or 注册 后,对此帖发表评论!

返回