六号车厢[中文字幕].Compartment.Number.6.2021.Bluray.1080p.DTS-HDMA5.1.x265.10bit-DreamHD 7.40GB

版主小s 3月前 343

✔资源类型:暂未分类   ✔电影年份:2021   ✔电影地区:其他   ✔电影分类:剧情

◎标  题 六号车厢
◎译  名 Compartment Number Six / Compartment Number 6 / Compartment No. 6 / Kupee nr 6 / 六号房间 / Купе номер 6
◎片  名 Hytti nro 6
◎年  代 2021
◎产  地 芬兰 / 俄罗斯 / 爱沙尼亚 / 德国
◎类  别 剧情
◎语  言 俄语 / 芬兰语
◎上映日期 2021-07-10(戛纳电影节) / 2021-10-29(芬兰)
◎IMDb评分 7.3/10 (8187人评价)
◎IMDb链接 https://www.imdb.com/title/tt10262648/
◎豆瓣评分 7.8/10 (8928人评价)
◎豆瓣链接 https://movie.douban.com/subject/34927643/
◎片  长 107分钟
◎导  演 尤霍·库奥斯曼恩 Juho Kuosmanen
◎编  剧 安德里斯·费尔德马尼斯 Andris Feldmanis
       尤霍·库奥斯曼恩 Juho Kuosmanen
       利维亚·乌尔曼 Livia Ulman
◎演  员 塞迪·哈拉 Seidi Haarla
       尤里·鲍里索夫 Yuriy Borisov
       尤利娅·奥格 Yuliya Aug
       蒂娜拉·卓卡洛娃 Dinara Drukarova
       波琳娜·奥格 Polina Aug
       Mikhail Brashinsky Mikhail Brashinsky
       谢尔盖·阿格夫诺 Sergei Agafonov

◎简  介
  一个芬兰女人为了逃避在莫斯科的一段秘密婚外情,登上了前往北极港口摩尔曼斯克的火车。她被迫与一名俄罗斯矿工在狭小的卧铺车厢里度过漫长的旅程。这次意外的邂逅使他们开始面对,自己所渴望的,人与人之间接触的真相。
  1. ##### MediaInfo ######
  2. General
  3. Unique ID                                : 130333829064973697564497701349260866197 (0x620D61E608AA8B9CB9C6685F95DD3295)
  4. Complete name                            : Compartment.Number.6.2021.Bluray.1080p.DTS-HDMA5.1.x265.10bit-DreamHD.mkv
  5. Format                                   : Matroska
  6. Format version                           : Version 4
  7. File size                                : 7.40 GiB
  8. Duration                                 : 1 h 47 min
  9. Overall bit rate mode                    : Variable
  10. Overall bit rate                         : 9 861 kb/s
  11. Encoded date                             : UTC 2022-07-27 11:47:27
  12. Writing application                      : mkvmerge v62.0.0 ('Apollo') 64-bit
  13. Writing library                          : libebml v1.4.2 + libmatroska v1.6.4

  14. Video
  15. ID                                       : 1
  16. Format                                   : HEVC
  17. Format/Info                              : High Efficiency Video Coding
  18. Format profile                           : Main 10@L4@Main
  19. Codec ID                                 : V_MPEGH/ISO/HEVC
  20. Duration                                 : 1 h 47 min
  21. Bit rate                                 : 6 246 kb/s
  22. Width                                    : 1 920 pixels
  23. Height                                   : 804 pixels
  24. Display aspect ratio                     : 2.40:1
  25. Frame rate mode                          : Constant
  26. Frame rate                               : 23.976 (24000/1001) FPS
  27. Original frame rate                      : 23.976 (23976/1000) FPS
  28. Color space                              : YUV
  29. Chroma subsampling                       : 4:2:0
  30. Bit depth                                : 10 bits
  31. Bits/(Pixel*Frame)                       : 0.169
  32. Stream size                              : 4.68 GiB (63%)
  33. Writing library                          : x265 3.5+10-82786fccc:[Windows][MSVC 1929][64 bit] 10bit
  34. Encoding settings                        : cpuid=1111039 / frame-threads=5 / numa-pools=36,36 / wpp / no-pmode / no-pme / no-psnr / no-ssim / log-level=2 / input-csp=1 / input-res=1920x804 / interlace=0 / total-frames=0 / level-idc=0 / high-tier=1 / uhd-bd=0 / ref=6 / no-allow-non-conformance / repeat-headers / annexb / no-aud / no-eob / no-eos / no-hrd / info / hash=0 / no-temporal-layers / no-open-gop / min-keyint=23 / keyint=250 / gop-lookahead=0 / bframes=8 / b-adapt=2 / b-pyramid / bframe-bias=0 / rc-lookahead=24 / lookahead-slices=5 / scenecut=40 / hist-scenecut=0 / radl=0 / no-splice / no-intra-refresh / ctu=64 / min-cu-size=8 / no-rect / no-amp / max-tu-size=32 / tu-inter-depth=1 / tu-intra-depth=1 / limit-tu=0 / rdoq-level=0 / dynamic-rd=0.00 / no-ssim-rd / signhide / no-tskip / nr-intra=0 / nr-inter=0 / no-constrained-intra / no-strong-intra-smoothing / max-merge=3 / limit-refs=1 / no-limit-modes / me=2 / subme=7 / merange=48 / temporal-mvp / no-frame-dup / no-hme / weightp / weightb / no-analyze-src-pics / deblock=0:0 / sao / no-sao-non-deblock / rd=4 / selective-sao=4 / early-skip / rskip / no-fast-intra / no-tskip-fast / no-cu-lossless / b-intra / no-splitrd-skip / rdpenalty=0 / psy-rd=2.00 / psy-rdoq=0.00 / no-rd-refine / no-lossless / cbqpoffs=0 / crqpoffs=0 / rc=crf / crf=16.0 / qcomp=0.60 / qpstep=4 / stats-write=0 / stats-read=0 / ipratio=1.40 / pbratio=1.30 / aq-mode=3 / aq-strength=1.00 / cutree / zone-count=0 / no-strict-cbr / qg-size=32 / no-rc-grain / qpmax=69 / qpmin=0 / no-const-vbv / sar=0 / overscan=0 / videoformat=5 / range=0 / colorprim=2 / transfer=2 / colormatrix=2 / chromaloc=0 / display-window=0 / cll=0,0 / min-luma=0 / max-luma=1023 / log2-max-poc-lsb=8 / vui-timing-info / vui-hrd-info / slices=1 / no-opt-qp-pps / no-opt-ref-list-length-pps / no-multi-pass-opt-rps / scenecut-bias=0.05 / hist-threshold=0.03 / no-opt-cu-delta-qp / aq-motion / no-hdr10 / no-hdr10-opt / no-dhdr10-opt / no-idr-recovery-sei / analysis-reuse-level=0 / analysis-save-reuse-level=0 / analysis-load-reuse-level=0 / scale-factor=0 / refine-intra=0 / refine-inter=0 / refine-mv=1 / refine-ctu-distortion=0 / no-limit-sao / ctu-info=0 / no-lowpass-dct / refine-analysis-type=0 / copy-pic=1 / max-ausize-factor=1.0 / no-dynamic-refine / no-single-sei / no-hevc-aq / no-svt / no-field / qp-adaptation-range=1.00 / scenecut-aware-qp=0conformance-window-offsets / right=0 / bottom=0 / decoder-max-rate=0 / no-vbv-live-multi-pass
  35. Default                                  : Yes
  36. Forced                                   : No

  37. Audio
  38. ID                                       : 2
  39. Format                                   : DTS XLL
  40. Format/Info                              : Digital Theater Systems
  41. Commercial name                          : DTS-HD Master Audio
  42. Codec ID                                 : A_DTS
  43. Duration                                 : 1 h 47 min
  44. Bit rate mode                            : Variable
  45. Bit rate                                 : 3 574 kb/s
  46. Channel(s)                               : 6 channels
  47. Channel layout                           : C L R Ls Rs LFE
  48. Sampling rate                            : 48.0 kHz
  49. Frame rate                               : 93.750 FPS (512 SPF)
  50. Bit depth                                : 24 bits
  51. Compression mode                         : Lossless
  52. Stream size                              : 2.68 GiB (36%)
  53. Language                                 : English
  54. Default                                  : Yes
  55. Forced                                   : No

  56. Text #1
  57. ID                                       : 3
  58. Format                                   : PGS
  59. Muxing mode                              : zlib
  60. Codec ID                                 : S_HDMV/PGS
  61. Codec ID/Info                            : Picture based subtitle format used on BDs/HD-DVDs
  62. Duration                                 : 1 h 41 min
  63. Bit rate                                 : 11.2 kb/s
  64. Count of elements                        : 1507
  65. Stream size                              : 8.14 MiB (0%)
  66. Language                                 : Chinese
  67. Default                                  : Yes
  68. Forced                                   : No

  69. Text #2
  70. ID                                       : 4
  71. Format                                   : PGS
  72. Muxing mode                              : zlib
  73. Codec ID                                 : S_HDMV/PGS
  74. Codec ID/Info                            : Picture based subtitle format used on BDs/HD-DVDs
  75. Duration                                 : 1 h 41 min
  76. Bit rate                                 : 11.4 kb/s
  77. Count of elements                        : 1507
  78. Stream size                              : 8.27 MiB (0%)
  79. Language                                 : Chinese
  80. Default                                  : Yes
  81. Forced                                   : No

  82. Text #3
  83. ID                                       : 5
  84. Format                                   : PGS
  85. Muxing mode                              : zlib
  86. Codec ID                                 : S_HDMV/PGS
  87. Codec ID/Info                            : Picture based subtitle format used on BDs/HD-DVDs
  88. Duration                                 : 1 h 41 min
  89. Bit rate                                 : 21.4 kb/s
  90. Count of elements                        : 1507
  91. Stream size                              : 15.6 MiB (0%)
  92. Language                                 : Chinese
  93. Default                                  : Yes
  94. Forced                                   : No

  95. Text #4
  96. ID                                       : 6
  97. Format                                   : PGS
  98. Muxing mode                              : zlib
  99. Codec ID                                 : S_HDMV/PGS
  100. Codec ID/Info                            : Picture based subtitle format used on BDs/HD-DVDs
  101. Duration                                 : 1 h 41 min
  102. Bit rate                                 : 21.6 kb/s
  103. Count of elements                        : 1507
  104. Stream size                              : 15.7 MiB (0%)
  105. Language                                 : Chinese
  106. Default                                  : Yes
  107. Forced                                   : No

  108. Text #5
  109. ID                                       : 7
  110. Format                                   : PGS
  111. Muxing mode                              : zlib
  112. Codec ID                                 : S_HDMV/PGS
  113. Codec ID/Info                            : Picture based subtitle format used on BDs/HD-DVDs
  114. Duration                                 : 1 h 47 min
  115. Bit rate                                 : 16.7 kb/s
  116. Count of elements                        : 1656
  117. Stream size                              : 12.8 MiB (0%)
  118. Language                                 : English
  119. Default                                  : Yes
  120. Forced                                   : No

  121. Menu
  122. 00:00:00.000                             : en:第 01 章
  123. 00:08:31.386                             : en:第 02 章
  124. 00:15:22.964                             : en:第 03 章
  125. 00:19:06.103                             : en:第 04 章
  126. 00:23:28.991                             : en:第 05 章
  127. 00:30:07.848                             : en:第 06 章
  128. 00:35:31.963                             : en:第 07 章
  129. 00:40:48.071                             : en:第 08 章
  130. 00:47:21.714                             : en:第 09 章
  131. 00:54:46.742                             : en:第 10 章
  132. 00:57:50.258                             : en:第 11 章
  133. 01:01:09.249                             : en:第 12 章
  134. 01:05:38.977                             : en:第 13 章
  135. 01:12:13.079                             : en:第 14 章
  136. 01:22:49.506                             : en:第 15 章
  137. 01:29:20.689                             : en:第 16 章




下载地址:

Compartment.Number.6.2021.Bluray.1080p.DTS-HDMA5.1.x265.10bit-DreamHD.torrent

BT9527电影天堂 1、BT9527电影天堂提供的BT文件均来源于互联网抓取,只供网友学习交流、技术提升使用。
2、我们遵守BitTorrent点对点协议原则,任何版权问题请联系原资源发布商,我们不处理任何版权纠纷,谢谢!如有争议请联系邮箱:BT9527#hotmail.com(#换成@)
3、如果您发现某页面或地址有错误,请联系站长邮箱BT9527#hotmail.com(#换成@),我们会尽快处理。您的热心是对BT9527电影天堂最大的支持。
4、本站建议去正规影院观看电影以支持电影行业发展。
最新回复 (0)

你可以在 登录 or 注册 后,对此帖发表评论!

返回
发新帖