破碎之城[中文字幕].Broken.City.2013.BluRay.1080p.DTS-HD.MA.5.1.x265.10bit-DreamHD 6.97GB

版主小s 3月前 210

✔资源类型:暂未分类   ✔电影年份:2013   ✔电影地区:欧美   ✔电影分类:剧情

◎标  题 破碎之城
◎译  名 惊爆危城(台)
◎片  名 Broken City
◎年  代 2013
◎产  地 美国
◎类  别 剧情 / 惊悚 / 犯罪
◎语  言 英语
◎上映日期 2013-01-18(美国)
◎IMDb评分 6.2/10 (78678人评价)
◎IMDb链接 https://www.imdb.com/title/tt1235522/
◎豆瓣评分 5.7/10 (4810人评价)
◎豆瓣链接 https://movie.douban.com/subject/3078391/
◎片  长 109分钟
◎导  演 艾伦·休斯 Allen Hughes
◎编  剧 布莱恩·塔克特 Brian Tucker
◎演  员 马克·沃尔伯格 Mark Wahlberg
       罗素·克劳 Russell Crowe
       凯瑟琳·泽塔-琼斯 Catherine Zeta-Jones
       杰弗里·怀特 Jeffrey Wright
       巴里·佩珀 Barry Pepper
       阿隆娜·塔尔 Alona Tal
       娜塔丽·马丁内斯 Natalie Martinez
       詹姆斯·兰索恩 James Ransone
       安拜·柴尔德斯 Ambyr Childers
       贾斯汀·钱伯斯 Justin Chambers
       凯尔·钱德勒 Kyle Chandler

◎标  签 美国 / 犯罪 / 政治 / 剧情 / 2013 / 悬疑 / 动作 / 惊悚

◎简  介
    比利·塔吉特(马克·沃尔伯格 Mark Wahlberg 饰)是一名备受尊敬的纽约警察。然而在一次追捕杀人犯人中致后者死亡,最终审判结果被私下篡改,犯人被定为自卫,而被市民称为“英雄”的塔吉特却被迫离开警局。                                    
                                  7年后,塔吉特以一名私家侦探的身份重新出现,然而市场并不景气,濒临破产之际,市长霍斯泰特勒(罗素·克劳 Russell Crowe 饰)找到他,让他帮忙查出妻子凯瑟琳(凯瑟琳·泽塔-琼斯 Catherine Zeta-Jones 饰)的情夫。然而事成之后,塔吉特却渐渐发现事件并非表面上那么简单,在此背后隐藏的政权利益、金钱交易和肉体买卖仿佛黑幕般笼罩着纽约这座破碎之城,牵扯其中的甚至还有7年前自己那桩冤案……
  1. ##### MediaInfo ######
  2. General
  3. Unique ID                                : 333258971126639017969262955930599232177 (0xFAB757DA2CFD06BCD92CFFB2C41712B1)
  4. Complete name                            : Broken.City.2013.BluRay.1080p.DTS-HD.MA.5.1.x265.10bit-DreamHD.mkv
  5. Format                                   : Matroska
  6. Format version                           : Version 4
  7. File size                                : 6.96 GiB
  8. Duration                                 : 1 h 48 min
  9. Overall bit rate mode                    : Variable
  10. Overall bit rate                         : 9 174 kb/s
  11. Encoded date                             : UTC 2021-01-24 18:09:18
  12. Writing application                      : mkvmerge v45.0.0 ('Heaven in Pennies') 64-bit
  13. Writing library                          : libebml v1.3.10 + libmatroska v1.5.2

  14. Video
  15. ID                                       : 1
  16. Format                                   : HEVC
  17. Format/Info                              : High Efficiency Video Coding
  18. Format profile                           : Main 10@L5.1@High
  19. Codec ID                                 : V_MPEGH/ISO/HEVC
  20. Duration                                 : 1 h 48 min
  21. Bit rate                                 : 7 802 kb/s
  22. Width                                    : 1 920 pixels
  23. Height                                   : 1 040 pixels
  24. Display aspect ratio                     : 1.85:1
  25. Frame rate mode                          : Constant
  26. Frame rate                               : 23.976 (24000/1001) FPS
  27. Color space                              : YUV
  28. Chroma subsampling                       : 4:2:0
  29. Bit depth                                : 10 bits
  30. Bits/(Pixel*Frame)                       : 0.163
  31. Stream size                              : 5.92 GiB (85%)
  32. Writing library                          : x265 3.4+24-g6ed1c24a2:[Windows][GCC 10.2.1][64 bit] 10bit
  33. Encoding settings                        : cpuid=1111039 / frame-threads=3 / numa-pools=12 / wpp / pmode / pme / no-psnr / no-ssim / log-level=2 / input-csp=1 / input-res=1920x1040 / interlace=0 / total-frames=156361 / level-idc=51 / high-tier=1 / uhd-bd=0 / ref=6 / no-allow-non-conformance / repeat-headers / annexb / no-aud / no-hrd / info / hash=0 / no-temporal-layers / no-open-gop / min-keyint=23 / keyint=250 / gop-lookahead=0 / bframes=9 / b-adapt=2 / b-pyramid / bframe-bias=0 / rc-lookahead=60 / lookahead-slices=6 / scenecut=40 / hist-scenecut=0 / radl=0 / no-splice / no-intra-refresh / ctu=32 / min-cu-size=8 / no-rect / no-amp / max-tu-size=32 / tu-inter-depth=4 / tu-intra-depth=4 / limit-tu=0 / rdoq-level=0 / dynamic-rd=0.00 / no-ssim-rd / signhide / no-tskip / nr-intra=0 / nr-inter=0 / no-constrained-intra / strong-intra-smoothing / max-merge=3 / limit-refs=1 / no-limit-modes / me=2 / subme=7 / merange=48 / temporal-mvp / no-frame-dup / no-hme / weightp / weightb / no-analyze-src-pics / deblock=0:0 / no-sao / no-sao-non-deblock / rd=4 / selective-sao=0 / early-skip / rskip / no-fast-intra / no-tskip-fast / no-cu-lossless / b-intra / no-splitrd-skip / rdpenalty=1 / psy-rd=2.00 / psy-rdoq=0.00 / no-rd-refine / no-lossless / cbqpoffs=0 / crqpoffs=0 / rc=crf / crf=16.0 / qcomp=0.65 / qpstep=4 / stats-write=0 / stats-read=0 / vbv-maxrate=160000 / vbv-bufsize=160000 / vbv-init=0.9 / crf-max=0.0 / crf-min=0.0 / ipratio=1.40 / pbratio=1.20 / aq-mode=3 / aq-strength=0.90 / cutree / zone-count=0 / no-strict-cbr / qg-size=32 / no-rc-grain / qpmax=69 / qpmin=0 / no-const-vbv / sar=0 / overscan=0 / videoformat=5 / range=0 / colorprim=1 / transfer=1 / colormatrix=1 / chromaloc=0 / display-window=0 / cll=0,0 / min-luma=0 / max-luma=1023 / log2-max-poc-lsb=8 / vui-timing-info / vui-hrd-info / slices=1 / no-opt-qp-pps / no-opt-ref-list-length-pps / no-multi-pass-opt-rps / scenecut-bias=0.05 / hist-threshold=0.03 / no-opt-cu-delta-qp / no-aq-motion / no-hdr10 / no-hdr10-opt / no-dhdr10-opt / no-idr-recovery-sei / analysis-reuse-level=0 / analysis-save-reuse-level=0 / analysis-load-reuse-level=0 / scale-factor=0 / refine-intra=0 / refine-inter=0 / refine-mv=1 / refine-ctu-distortion=0 / no-limit-sao / ctu-info=0 / no-lowpass-dct / refine-analysis-type=0 / copy-pic=1 / max-ausize-factor=1.0 / no-dynamic-refine / no-single-sei / no-hevc-aq / no-svt / no-field / qp-adaptation-range=1.00 / no-scenecut-aware-qpconformance-window-offsets / right=0 / bottom=0 / decoder-max-rate=0 / no-vbv-live-multi-pass
  34. Default                                  : Yes
  35. Forced                                   : No
  36. Color range                              : Limited
  37. Color primaries                          : BT.709
  38. Transfer characteristics                 : BT.709
  39. Matrix coefficients                      : BT.709

  40. Audio
  41. ID                                       : 2
  42. Format                                   : DTS XLL
  43. Format/Info                              : Digital Theater Systems
  44. Commercial name                          : DTS-HD Master Audio
  45. Codec ID                                 : A_DTS
  46. Duration                                 : 1 h 48 min
  47. Bit rate mode                            : Variable
  48. Bit rate                                 : 1 334 kb/s
  49. Channel(s)                               : 6 channels
  50. Channel layout                           : C L R Ls Rs LFE
  51. Sampling rate                            : 48.0 kHz
  52. Frame rate                               : 93.750 FPS (512 SPF)
  53. Bit depth                                : 16 bits
  54. Compression mode                         : Lossless
  55. Stream size                              : 1.01 GiB (15%)
  56. Language                                 : English
  57. Default                                  : Yes
  58. Forced                                   : No

  59. Text #1
  60. ID                                       : 3
  61. Format                                   : PGS
  62. Muxing mode                              : zlib
  63. Codec ID                                 : S_HDMV/PGS
  64. Codec ID/Info                            : Picture based subtitle format used on BDs/HD-DVDs
  65. Duration                                 : 1 h 40 min
  66. Bit rate                                 : 38.6 kb/s
  67. Count of elements                        : 3356
  68. Stream size                              : 27.6 MiB (0%)
  69. Language                                 : Chinese
  70. Default                                  : Yes
  71. Forced                                   : No

  72. Text #2
  73. ID                                       : 4
  74. Format                                   : PGS
  75. Muxing mode                              : zlib
  76. Codec ID                                 : S_HDMV/PGS
  77. Codec ID/Info                            : Picture based subtitle format used on BDs/HD-DVDs
  78. Duration                                 : 1 h 39 min
  79. Bit rate                                 : 51.1 kb/s
  80. Count of elements                        : 3390
  81. Stream size                              : 36.5 MiB (1%)
  82. Language                                 : English
  83. Default                                  : No
  84. Forced                                   : No

  85. Menu
  86. 00:00:00.000                             : en:Chapter 1
  87. 00:07:27.447                             : en:Chapter 2
  88. 00:14:28.159                             : en:Chapter 3
  89. 00:21:52.645                             : en:Chapter 4
  90. 00:29:02.074                             : en:Chapter 5
  91. 00:35:32.839                             : en:Chapter 6
  92. 00:42:15.533                             : en:Chapter 7
  93. 00:50:47.836                             : en:Chapter 8
  94. 01:00:09.648                             : en:Chapter 9
  95. 01:08:01.536                             : en:Chapter 10
  96. 01:14:08.778                             : en:Chapter 11
  97. 01:23:21.079                             : en:Chapter 12
  98. 01:28:37.938                             : en:Chapter 13
  99. 01:33:33.775                             : en:Chapter 14
  100. 01:35:03.489                             : en:Chapter 15
  101. 01:42:36.484                             : en:Chapter 16




下载地址:

Broken.City.2013.BluRay.1080p.DTS-HD.MA.5.1.x265.10bit-DreamHD.torrent

BT9527电影天堂 1、BT9527电影天堂提供的BT文件均来源于互联网抓取,只供网友学习交流、技术提升使用。
2、我们遵守BitTorrent点对点协议原则,任何版权问题请联系原资源发布商,我们不处理任何版权纠纷,谢谢!如有争议请联系邮箱:BT9527#hotmail.com(#换成@)
3、如果您发现某页面或地址有错误,请联系站长邮箱BT9527#hotmail.com(#换成@),我们会尽快处理。您的热心是对BT9527电影天堂最大的支持。
4、本站建议去正规影院观看电影以支持电影行业发展。
最新回复 (0)

你可以在 登录 or 注册 后,对此帖发表评论!

返回
发新帖