盗贼[简繁英双语字幕].Bandit.2022.BluRay.1080p.DTS-HD.MA5.1.x265.10bit-ALT 13.11GB

版主小s 3月前 648

✔资源类型:暂未分类   ✔电影年份:2022   ✔电影地区:其他   ✔电影分类:动作

◎标  题 盗贼
◎片  名 Bandit
◎年  代 2022
◎产  地 加拿大
◎类  别 动作 / 惊悚 / 犯罪
◎语  言 英语
◎上映日期 2022-09-23(美国)
◎IMDb链接 https://www.imdb.com/title/tt9853500/
◎豆瓣链接 https://movie.douban.com/subject/35284113/
◎片  长 126分钟
◎导  演 阿伦·安加 Allan Ungar
◎编  剧 克莱格·温曼 Kraig Wenman
◎演  员 梅尔·吉布森 Mel Gibson
       伊丽莎·库斯伯特 Elisha Cuthbert
       奥利薇亚·阿波 Olivia d'Abo
       乔什·杜哈明 Josh Duhamel
       内斯特·卡博内尔 Nestor Carbonell
       海雷·韦伯 Haley Webb
       克莱尔·布朗森 Claire Bronson
       斯温·特梅尔 Swen Temmel
       莱斯莉·斯特拉顿 Leslie Stratton
       基思·阿瑟·鲍顿 Keith Arthur Bolden
       齐雅拉·德安布罗西奥 Chiara D'Ambrosio
       蕾切尔·马卡里兰 Rachael Markarian
       迪伦·弗拉施纳 Dylan Flashner
       杰森·韦尔 Jason Vail
       杰西卡·卢扎 Jessica Luza
       利安德·苏莱曼 Leander Suleiman
       格雷格·科贝特 Greg Corbett
       巴迪·沃特金斯 Buddy Watkins
       查理·萨拉 Charlie Sara
       B·J·温弗里 B.J. Winfrey

◎简  介
  职业罪犯小吉尔伯特·加尔文(杜哈明饰)从美国监狱逃出并越过边境进入加拿大,在加拿大,他化名为罗伯特·怀特曼,有了新的身份。在坠入爱河并结婚后,他声称接受了一份旅行安全顾问的工作,但他大胆的犯罪行为仍在继续。在他向终身黑帮成员汤米(吉布森)寻求投资后,他的事业变得更加复杂,他卷入了加拿大历史上最大的抢劫案,这使他成为跨国追捕的核心人物。
  1. ##### MediaInfo ######
  2. General
  3. Unique ID                                : 40402301835603850213768168545261259420 (0x1E653346627F1B74EE609AB47C610A9C)
  4. Complete name                            : Bandit.2022.BluRay.1080p.DTS-HD.MA5.1.x265.10bit-ALT.mkv
  5. Format                                   : Matroska
  6. Format version                           : Version 4
  7. File size                                : 13.1 GiB
  8. Duration                                 : 2 h 5 min
  9. Overall bit rate mode                    : Variable
  10. Overall bit rate                         : 14.9 Mb/s
  11. Encoded date                             : UTC 2022-12-17 14:36:16
  12. Writing application                      : mkvmerge v49.0.0 ('Sick Of Losing Soulmates') 64-bit
  13. Writing library                          : libebml v1.4.0 + libmatroska v1.6.1

  14. Video
  15. ID                                       : 1
  16. Format                                   : HEVC
  17. Format/Info                              : High Efficiency Video Coding
  18. Format profile                           : Main 10@L5.1@High
  19. Codec ID                                 : V_MPEGH/ISO/HEVC
  20. Duration                                 : 2 h 5 min
  21. Bit rate                                 : 12.8 Mb/s
  22. Width                                    : 1 920 pixels
  23. Height                                   : 804 pixels
  24. Display aspect ratio                     : 2.40:1
  25. Frame rate mode                          : Constant
  26. Frame rate                               : 23.976 (24000/1001) FPS
  27. Color space                              : YUV
  28. Chroma subsampling                       : 4:2:0
  29. Bit depth                                : 10 bits
  30. Bits/(Pixel*Frame)                       : 0.346
  31. Stream size                              : 11.3 GiB (86%)
  32. Title                                    : HEVC, x265Main10@L5.1@High, 24/1.001 fps @ 12794 kbps
  33. Writing library                          : x265 3.5+40-6064f96a6:[Windows][GCC 12.2.0][64 bit] 10bit
  34. Encoding settings                        : cpuid=1111039 / frame-threads=4 / numa-pools=16 / wpp / no-pmode / no-pme / no-psnr / no-ssim / log-level=2 / input-csp=1 / input-res=1920x804 / interlace=0 / total-frames=181130 / level-idc=51 / high-tier=1 / uhd-bd=0 / ref=5 / no-allow-non-conformance / no-repeat-headers / annexb / no-aud / no-eob / no-eos / no-hrd / info / hash=0 / no-temporal-layers / open-gop / min-keyint=24 / keyint=240 / gop-lookahead=0 / bframes=6 / b-adapt=2 / b-pyramid / bframe-bias=0 / rc-lookahead=40 / lookahead-slices=0 / scenecut=40 / no-hist-scenecut / radl=0 / no-splice / no-intra-refresh / ctu=32 / min-cu-size=8 / no-rect / no-amp / max-tu-size=32 / tu-inter-depth=3 / tu-intra-depth=3 / limit-tu=4 / rdoq-level=2 / dynamic-rd=0.00 / no-ssim-rd / signhide / no-tskip / nr-intra=0 / nr-inter=0 / no-constrained-intra / no-strong-intra-smoothing / max-merge=4 / limit-refs=1 / limit-modes / me=3 / subme=4 / merange=25 / temporal-mvp / no-frame-dup / no-hme / weightp / weightb / no-analyze-src-pics / deblock=-3:-3 / no-sao / no-sao-non-deblock / rd=6 / selective-sao=0 / no-early-skip / rskip / no-fast-intra / no-tskip-fast / no-cu-lossless / b-intra / no-splitrd-skip / rdpenalty=0 / psy-rd=2.00 / psy-rdoq=1.00 / no-rd-refine / no-lossless / cbqpoffs=-2 / crqpoffs=-2 / rc=crf / crf=18.5 / qcomp=0.65 / qpstep=4 / stats-write=0 / stats-read=0 / vbv-maxrate=80000 / vbv-bufsize=80000 / vbv-init=0.9 / min-vbv-fullness=50.0 / max-vbv-fullness=80.0 / crf-max=0.0 / crf-min=0.0 / ipratio=1.40 / pbratio=1.30 / aq-mode=2 / aq-strength=0.85 / cutree / zone-count=0 / no-strict-cbr / qg-size=32 / no-rc-grain / qpmax=69 / qpmin=0 / no-const-vbv / sar=1 / overscan=0 / videoformat=5 / range=0 / colorprim=1 / transfer=1 / colormatrix=1 / chromaloc=0 / display-window=0 / cll=0,0 / min-luma=0 / max-luma=1023 / log2-max-poc-lsb=8 / vui-timing-info / vui-hrd-info / slices=1 / no-opt-qp-pps / no-opt-ref-list-length-pps / no-multi-pass-opt-rps / scenecut-bias=0.05 / hist-threshold=0.03 / no-opt-cu-delta-qp / no-aq-motion / no-hdr10 / no-hdr10-opt / no-dhdr10-opt / no-idr-recovery-sei / analysis-reuse-level=0 / analysis-save-reuse-level=0 / analysis-load-reuse-level=0 / scale-factor=0 / refine-intra=0 / refine-inter=0 / refine-mv=1 / refine-ctu-distortion=0 / no-limit-sao / ctu-info=0 / no-lowpass-dct / refine-analysis-type=0 / copy-pic=1 / max-ausize-factor=1.0 / no-dynamic-refine / no-single-sei / no-hevc-aq / no-svt / no-field / qp-adaptation-range=1.00 / scenecut-aware-qp=0conformance-window-offsets / right=0 / bottom=0 / decoder-max-rate=0 / no-vbv-live-multi-pass
  35. Language                                 : English
  36. Default                                  : Yes
  37. Forced                                   : No
  38. Color range                              : Limited
  39. Color primaries                          : BT.709
  40. Transfer characteristics                 : BT.709
  41. Matrix coefficients                      : BT.709

  42. Audio
  43. ID                                       : 2
  44. Format                                   : DTS XLL
  45. Format/Info                              : Digital Theater Systems
  46. Commercial name                          : DTS-HD Master Audio
  47. Codec ID                                 : A_DTS
  48. Duration                                 : 2 h 5 min
  49. Bit rate mode                            : Variable
  50. Bit rate                                 : 1 879 kb/s
  51. Channel(s)                               : 6 channels
  52. Channel layout                           : C L R Ls Rs LFE
  53. Sampling rate                            : 48.0 kHz
  54. Frame rate                               : 93.750 FPS (512 SPF)
  55. Bit depth                                : 16 bits
  56. Compression mode                         : Lossless
  57. Stream size                              : 1.65 GiB (13%)
  58. Title                                    : English DTS-HD Master Audio 5.1 @ 1879 kbps
  59. Language                                 : English
  60. Default                                  : Yes
  61. Forced                                   : No

  62. Text #1
  63. ID                                       : 3
  64. Format                                   : PGS
  65. Codec ID                                 : S_HDMV/PGS
  66. Codec ID/Info                            : Picture based subtitle format used on BDs/HD-DVDs
  67. Duration                                 : 1 h 58 min
  68. Bit rate                                 : 43.8 kb/s
  69. Count of elements                        : 4960
  70. Stream size                              : 37.0 MiB (0%)
  71. Title                                    : Eng/SUP
  72. Language                                 : English
  73. Default                                  : No
  74. Forced                                   : No

  75. Text #2
  76. ID                                       : 4
  77. Format                                   : PGS
  78. Codec ID                                 : S_HDMV/PGS
  79. Codec ID/Info                            : Picture based subtitle format used on BDs/HD-DVDs
  80. Duration                                 : 1 h 56 min
  81. Bit rate                                 : 37.6 kb/s
  82. Count of elements                        : 3873
  83. Stream size                              : 31.4 MiB (0%)
  84. Title                                    : Chs/SUP  简体
  85. Language                                 : Chinese
  86. Default                                  : Yes
  87. Forced                                   : No

  88. Text #3
  89. ID                                       : 5
  90. Format                                   : PGS
  91. Codec ID                                 : S_HDMV/PGS
  92. Codec ID/Info                            : Picture based subtitle format used on BDs/HD-DVDs
  93. Duration                                 : 1 h 56 min
  94. Bit rate                                 : 38.8 kb/s
  95. Count of elements                        : 3873
  96. Stream size                              : 32.5 MiB (0%)
  97. Title                                    : Cht/SUP  繁体
  98. Language                                 : Chinese
  99. Default                                  : No
  100. Forced                                   : No

  101. Text #4
  102. ID                                       : 6
  103. Format                                   : PGS
  104. Codec ID                                 : S_HDMV/PGS
  105. Codec ID/Info                            : Picture based subtitle format used on BDs/HD-DVDs
  106. Duration                                 : 1 h 56 min
  107. Bit rate                                 : 61.9 kb/s
  108. Count of elements                        : 3873
  109. Stream size                              : 51.8 MiB (0%)
  110. Title                                    : Chs/SUP  简英双语
  111. Language                                 : Chinese
  112. Default                                  : No
  113. Forced                                   : No

  114. Text #5
  115. ID                                       : 7
  116. Format                                   : PGS
  117. Codec ID                                 : S_HDMV/PGS
  118. Codec ID/Info                            : Picture based subtitle format used on BDs/HD-DVDs
  119. Duration                                 : 1 h 56 min
  120. Bit rate                                 : 63.1 kb/s
  121. Count of elements                        : 3873
  122. Stream size                              : 52.8 MiB (0%)
  123. Title                                    : Cht/SUP  繁英双语
  124. Language                                 : Chinese
  125. Default                                  : No
  126. Forced                                   : No

  127. Menu
  128. 00:00:00.000                             : en:第 01 章
  129. 00:06:45.071                             : en:第 02 章
  130. 00:14:55.311                             : en:第 03 章
  131. 00:23:06.927                             : en:第 04 章
  132. 00:27:51.920                             : en:第 05 章
  133. 00:38:35.396                             : en:第 06 章
  134. 00:44:27.665                             : en:第 07 章
  135. 00:53:25.160                             : en:第 08 章
  136. 00:59:51.713                             : en:第 09 章
  137. 01:05:03.024                             : en:第 10 章
  138. 01:14:24.585                             : en:第 11 章
  139. 01:21:47.486                             : en:第 12 章
  140. 01:30:05.191                             : en:第 13 章
  141. 01:35:40.944                             : en:第 14 章
  142. 01:44:18.461                             : en:第 15 章
  143. 01:51:21.174                             : en:第 16 章




下载地址:

Bandit.2022.BluRay.1080p.DTS-HD.MA5.1.x265.10bit-ALT.torrent

BT9527电影天堂 1、BT9527电影天堂提供的BT文件均来源于互联网抓取,只供网友学习交流、技术提升使用。
2、我们遵守BitTorrent点对点协议原则,任何版权问题请联系原资源发布商,我们不处理任何版权纠纷,谢谢!如有争议请联系邮箱:BT9527#hotmail.com(#换成@)
3、如果您发现某页面或地址有错误,请联系站长邮箱BT9527#hotmail.com(#换成@),我们会尽快处理。您的热心是对BT9527电影天堂最大的支持。
4、本站建议去正规影院观看电影以支持电影行业发展。
最新回复 (0)

你可以在 登录 or 注册 后,对此帖发表评论!

返回