向着炮火[简繁字幕].71.Into.the.Fire.2010.1080p.BluRay.x265.10bit.DTS-CTRLHD 9.62GB

版主小s 3月前 285

✔资源类型:暂未分类   ✔电影年份:2010   ✔电影地区:韩国   ✔电影分类:战争

◎标  题 向着炮火
◎译  名 到炮火中去 / 走进炮火 / 七十一 / 71: Into the Fire
◎片  名 포화 속으로
◎年  代 2010
◎产  地 韩国
◎类  别 战争
◎语  言 韩语
◎上映日期 2010-06-16(韩国)
◎IMDb评分 7.3/10 (5370人评价)
◎IMDb链接 https://www.imdb.com/title/tt1587729/
◎豆瓣评分 6.9/10 (8370人评价)
◎豆瓣链接 https://movie.douban.com/subject/4282653/
◎片  长 120分钟
◎导  演 李宰汉 John H. Lee
◎编  剧 李满熙 Man-Hee Lee
       金东宇 Dong-Woo Kim
       李宰汉 John H. Lee
◎演  员 权相宇 Sang-woo Kwon
       崔胜铉 Seung-hyun Choi
       车胜元 Seung-won Cha
       金承佑 Seung-woo Kim
       朴真熙 Jin-hie Park
       金成铃 Sung-ryeong Kim
       郑泽贤 Taek-hyeon Jeong
       Chae Ho-byeong Chae Ho-byeong
       吴成秀 Oh Sung-soo
       南泰富 Tae-boo Nam
       池南赫 Nam-hyuk Ji
       张元赫 Jang Won-hyuk
       全仁杰 In-geol Jeon
       魏智雄 Ji-woong Wi
       Hwang Se-jeong  Hwang Se-jeong
       金東範 Dong-Bum Kim
       金彗星 Hye-sung Kim
       白仁权 In-Kwon Baek
       金宇赫 Kim Woo-hyuk
       金胤成 Kim Yoon-seong
       陈庸旭 Jin Yong-wook
       宋镇宇 Jin-woo Song
       崔灿民 Chan-min Choi
       金昌洙 Chang-ju Kim
       Steve M. Choe Steve M. Choe
       Kim Tae Hyun Kim Tae Hyun

◎标  签 战争 / 韩国 / 韩国电影 / 权相宇 / 崔胜贤 / TOP / 2010 / 车胜元

◎简  介
  本片根据朝鲜战争中的真人真事演绎而来。                                    
                                1950年八月,朝鲜人民军攻克汉城,一路南下。韩国方面征召学生入伍,组成“学徒义勇军”顽强抵抗。学徒兵吴张帆(崔胜贤/T.O.P 饰)所在的部队被人民军连连击退,为补充兵员,数十名学徒兵加入战斗序列,其中包括父母被人民军杀害的不良 学生甲赵(权相宇 饰),这些学徒兵组成了一支71人的小队,由吴张帆担任队长率队防卫浦项,而韩国部队则转移至釜山之前最后的防线——洛东江。孤零零的学徒兵小队在一所废弃的学校中布防,他们将要面对的,是朝鲜人民军精锐的766部队,人民军少校朴武郎(车胜元 饰)为完成最高领袖的任务,下令向距离釜山更近的浦项进攻……
  1. ##### MediaInfo ######
  2. General
  3. Unique ID                                : 334156337761816525290599401157961334029 (0xFB642B717957CE5F07DE734FAFA63D0D)
  4. Complete name                            : 71.Into.the.Fire.2010.1080p.BluRay.x265.10bit.DTS-CTRLHD.mkv
  5. Format                                   : Matroska
  6. Format version                           : Version 4
  7. File size                                : 9.62 GiB
  8. Duration                                 : 2 h 2 min
  9. Overall bit rate                         : 11.2 Mb/s
  10. Encoded date                             : UTC 2022-12-17 01:58:38
  11. Writing application                      : mkvmerge v72.0.0 ('Minuano (Six-eight)') 64-bit
  12. Writing library                          : libebml v1.4.4 + libmatroska v1.7.1

  13. Video
  14. ID                                       : 1
  15. Format                                   : HEVC
  16. Format/Info                              : High Efficiency Video Coding
  17. Format profile                           : Main 10@L4@Main
  18. Codec ID                                 : V_MPEGH/ISO/HEVC
  19. Duration                                 : 2 h 0 min
  20. Bit rate                                 : 9 879 kb/s
  21. Width                                    : 1 916 pixels
  22. Height                                   : 816 pixels
  23. Display aspect ratio                     : 2.35:1
  24. Frame rate mode                          : Constant
  25. Frame rate                               : 23.976 (24000/1001) FPS
  26. Color space                              : YUV
  27. Chroma subsampling                       : 4:2:0
  28. Bit depth                                : 10 bits
  29. Bits/(Pixel*Frame)                       : 0.264
  30. Stream size                              : 8.31 GiB (86%)
  31. Default                                  : Yes
  32. Forced                                   : No

  33. Audio
  34. ID                                       : 2
  35. Format                                   : DTS
  36. Format/Info                              : Digital Theater Systems
  37. Codec ID                                 : A_DTS
  38. Duration                                 : 2 h 2 min
  39. Bit rate mode                            : Constant
  40. Bit rate                                 : 1 509 kb/s
  41. Channel(s)                               : 6 channels
  42. Channel layout                           : C L R Ls Rs LFE
  43. Sampling rate                            : 48.0 kHz
  44. Frame rate                               : 93.750 FPS (512 SPF)
  45. Bit depth                                : 16 bits
  46. Compression mode                         : Lossy
  47. Stream size                              : 1.29 GiB (13%)
  48. Title                                    : korean
  49. Language                                 : Korean
  50. Default                                  : Yes
  51. Forced                                   : No

  52. Text #1
  53. ID                                       : 3
  54. Format                                   : PGS
  55. Muxing mode                              : zlib
  56. Codec ID                                 : S_HDMV/PGS
  57. Codec ID/Info                            : Picture based subtitle format used on BDs/HD-DVDs
  58. Duration                                 : 1 h 56 min
  59. Bit rate                                 : 13.8 kb/s
  60. Count of elements                        : 2020
  61. Stream size                              : 11.5 MiB (0%)
  62. Title                                    : chs
  63. Language                                 : Chinese
  64. Default                                  : Yes
  65. Forced                                   : No

  66. Text #2
  67. ID                                       : 4
  68. Format                                   : PGS
  69. Muxing mode                              : zlib
  70. Codec ID                                 : S_HDMV/PGS
  71. Codec ID/Info                            : Picture based subtitle format used on BDs/HD-DVDs
  72. Duration                                 : 1 h 56 min
  73. Bit rate                                 : 15.8 kb/s
  74. Count of elements                        : 2019
  75. Stream size                              : 13.2 MiB (0%)
  76. Title                                    : cht
  77. Language                                 : Chinese
  78. Default                                  : No
  79. Forced                                   : No




下载地址:

71.Into.the.Fire.2010.1080p.BluRay.x265.10bit.DTS-CTRLHD.torrent

BT9527电影天堂 1、BT9527电影天堂提供的BT文件均来源于互联网抓取,只供网友学习交流、技术提升使用。
2、我们遵守BitTorrent点对点协议原则,任何版权问题请联系原资源发布商,我们不处理任何版权纠纷,谢谢!如有争议请联系邮箱:BT9527#hotmail.com(#换成@)
3、如果您发现某页面或地址有错误,请联系站长邮箱BT9527#hotmail.com(#换成@),我们会尽快处理。您的热心是对BT9527电影天堂最大的支持。
4、本站建议去正规影院观看电影以支持电影行业发展。
最新回复 (0)

你可以在 登录 or 注册 后,对此帖发表评论!

返回
发新帖