侠盗王子罗宾汉[简繁英字幕].Robin.Hood.Prince.of.Thieves.1991.Extended.UHD.BluRay.2160p.DTS-HD.MA5.1.x265.10bit.HDR-ALT 32.06GB

版主小s 3月前 265

✔资源类型:BD-4K   ✔电影年份:更 早   ✔电影地区:欧美   ✔电影分类:剧情

◎标  题 侠盗王子罗宾汉
◎译  名 大盗罗宾汉 / 奇云高士拿之侠盗罗宾汉 / 罗宾汉:盗贼王子
◎片  名 Robin Hood: Prince of Thieves
◎年  代 1991
◎产  地 美国 / 英国
◎类  别 剧情 / 动作 / 冒险
◎语  言 英语 / 阿拉伯语
◎上映日期 1991-06-14(美国)
◎IMDb评分 6.9/10 (191056人评价)
◎IMDb链接 https://www.imdb.com/title/tt0102798/
◎豆瓣评分 7.2/10 (5265人评价)
◎豆瓣链接 https://movie.douban.com/subject/1294111/
◎片  长 143分钟
◎导  演 凯文·雷诺兹 Kevin Reynolds
◎编  剧 潘·丹萨姆 Pen Densham
       约翰·沃森 John Watson
◎演  员 凯文·科斯特纳 Kevin Costner
       摩根·弗里曼 Morgan Freeman
       玛丽·伊丽莎白·马斯特兰托尼奥 Mary Elizabeth Mastrantonio
       克里斯蒂安·史莱特 Christian Slater
       艾伦·瑞克曼 Alan Rickman
       杰拉尔丁·麦克伊万 Geraldine McEwan
       迈克尔·麦克沙恩 Michael McShane
       布耐恩·布莱塞得 Brian Blessed
       迈克尔·维克特 Michael Wincott
       尼克·布莱波尔 Nick Brimble
       Daniel Newman Daniel Newman
       Daniel Peacock Daniel Peacock
       沃尔特·斯帕罗 Walter Sparrow
       Harold Innocent Harold Innocent
       杰克·瓦尔德 Jack Wild
       Marc Zuber Marc Zuber
       梅丽娜·肯德尔 Merelina Kendall
       Jimmy Gardner Jimmy Gardner
       John Hallam John Hallam
       道格拉斯·布莱克威尔 Douglas Blackwell
       帕特·罗奇 Pat Roach
       Derek Deadman Derek Deadman
       霍华德·卢刘易斯 Howard Lew Lewis
       克里斯托弗·亚当森 Christopher Adamson
       布莱恩·亚当斯 Bryan Adams
       David Bowles David Bowles
       肖恩·康纳利 Sean Connery
       Bill Payne Bill Payne
       Derek Pykett Derek Pykett
       Graham Riddell Graham Riddell
       James G. Robinson James G. Robinson
       潘·丹萨姆 Pen Densham
       David Nicksay David Nicksay
       理查德·巴顿·刘易斯 Richard Barton Lewis
       加里·巴伯 Gary Barber
       迈克尔·凯曼 Michael Kamen
       道格拉斯·米什姆 Douglas Milsome
       杰里米·齐默尔曼 Jeremy Zimmerman
       Ilene Starger Ilene Starger
       约翰·格雷斯马克 John Graysmark
       Fred Carter Fred Carter
       John Bloomfield John Bloomfield
       Lynda Armstrong Lynda Armstrong
       Christine Allsopp Christine Allsopp
       丹尼尔·帕克 Daniel Parker
       Michael Pangrazio Michael Pangrazio
       克莱格·巴朗 Craig Barron

◎简  介
  故事发生在十字军东征时期,罗宾(凯文·科斯特纳 Kevin Costner 饰)身陷囹圄,带着两个狱友,罗宾杀死了警卫,成功越狱。途中,一个狱友不幸死去,临终时,他将遗物交给罗宾,托付他务必将此带给他的妹妹玛利亚(玛丽·伊丽莎白·马斯特兰托尼奥 Mary Elizabeth Mastrantonio 饰),而另一位狱友亚森(摩根·弗里曼 Morgan Freeman 饰)则成为了罗宾最坚定忠诚的战友。                                    
                                一次偶然中,落难的罗宾在森林中遭遇了一伙由穷人所组成的强盗,罗宾凭借着自己的勇气和智慧感化了他们,并且彻底放弃了自己原有的身份,和穷人们一起奋战,对抗残暴的统治者,而受到打击的统治者们当然不会对此坐视不管,一场恶战即将拉开序幕。
  1. ##### MediaInfo ######
  2. General
  3. Unique ID                                : 187347721968819217900855940689249890661 (0x8CF1DBD8B1D6335E067BB05B5FBAF165)
  4. Complete name                            : Robin.Hood.Prince.of.Thieves.1991.Extended.UHD.BluRay.2160p.DTS-HD.MA5.1.x265.10bit.HDR-ALT.mkv
  5. Format                                   : Matroska
  6. Format version                           : Version 4
  7. File size                                : 32.1 GiB
  8. Duration                                 : 2 h 35 min
  9. Overall bit rate mode                    : Variable
  10. Overall bit rate                         : 29.6 Mb/s
  11. Encoded date                             : UTC 2022-12-17 06:44:40
  12. Writing application                      : mkvmerge v49.0.0 ('Sick Of Losing Soulmates') 64-bit
  13. Writing library                          : libebml v1.4.0 + libmatroska v1.6.1

  14. Video
  15. ID                                       : 1
  16. Format                                   : HEVC
  17. Format/Info                              : High Efficiency Video Coding
  18. Format profile                           : Main 10@L5.1@High
  19. HDR format                               : SMPTE ST 2086, HDR10 compatible
  20. Codec ID                                 : V_MPEGH/ISO/HEVC
  21. Duration                                 : 2 h 35 min
  22. Bit rate                                 : 27.5 Mb/s
  23. Width                                    : 3 840 pixels
  24. Height                                   : 2 076 pixels
  25. Display aspect ratio                     : 1.85:1
  26. Frame rate mode                          : Constant
  27. Frame rate                               : 23.976 (24000/1001) FPS
  28. Color space                              : YUV
  29. Chroma subsampling                       : 4:2:0 (Type 2)
  30. Bit depth                                : 10 bits
  31. Bits/(Pixel*Frame)                       : 0.144
  32. Stream size                              : 29.8 GiB (93%)
  33. Title                                    : HEVC, x265Main10@L5.1@High, 24/1.001 fps @ 27505 kbps
  34. Writing library                          : x265 3.5+40-6064f96a6:[Windows][GCC 12.2.0][64 bit] 10bit
  35. Encoding settings                        : cpuid=1111039 / frame-threads=4 / numa-pools=20 / wpp / no-pmode / no-pme / no-psnr / no-ssim / log-level=2 / input-csp=1 / input-res=3840x2076 / interlace=0 / total-frames=223030 / level-idc=51 / high-tier=1 / uhd-bd=0 / ref=4 / no-allow-non-conformance / repeat-headers / annexb / no-aud / no-eob / no-eos / hrd / info / hash=0 / no-temporal-layers / no-open-gop / min-keyint=24 / keyint=240 / gop-lookahead=0 / bframes=8 / b-adapt=2 / b-pyramid / bframe-bias=0 / rc-lookahead=25 / lookahead-slices=0 / scenecut=40 / no-hist-scenecut / radl=0 / no-splice / no-intra-refresh / ctu=64 / min-cu-size=8 / no-rect / no-amp / max-tu-size=32 / tu-inter-depth=3 / tu-intra-depth=3 / limit-tu=4 / rdoq-level=2 / dynamic-rd=0.00 / no-ssim-rd / signhide / no-tskip / nr-intra=0 / nr-inter=0 / no-constrained-intra / no-strong-intra-smoothing / max-merge=4 / limit-refs=1 / limit-modes / me=3 / subme=4 / merange=57 / temporal-mvp / no-frame-dup / no-hme / weightp / weightb / no-analyze-src-pics / deblock=-3:-3 / no-sao / no-sao-non-deblock / rd=6 / selective-sao=0 / no-early-skip / rskip / no-fast-intra / no-tskip-fast / no-cu-lossless / b-intra / no-splitrd-skip / rdpenalty=0 / psy-rd=2.00 / psy-rdoq=1.00 / no-rd-refine / no-lossless / cbqpoffs=-2 / crqpoffs=-2 / rc=crf / crf=23.5 / qcomp=0.65 / qpstep=4 / stats-write=0 / stats-read=0 / vbv-maxrate=160000 / vbv-bufsize=160000 / vbv-init=0.9 / min-vbv-fullness=50.0 / max-vbv-fullness=80.0 / crf-max=0.0 / crf-min=0.0 / ipratio=1.30 / pbratio=1.20 / aq-mode=3 / aq-strength=0.85 / cutree / zone-count=0 / no-strict-cbr / qg-size=32 / no-rc-grain / qpmax=69 / qpmin=0 / no-const-vbv / sar=1 / overscan=0 / videoformat=5 / range=0 / colorprim=9 / transfer=16 / colormatrix=9 / chromaloc=1 / chromaloc-top=2 / chromaloc-bottom=2 / display-window=0 / master-display=G(13250,34500)B(7500,3000)R(34000,16000)WP(15635,16450)L(10000000,1) / cll=0,0 / min-luma=0 / max-luma=1023 / log2-max-poc-lsb=8 / vui-timing-info / vui-hrd-info / slices=1 / no-opt-qp-pps / no-opt-ref-list-length-pps / no-multi-pass-opt-rps / scenecut-bias=0.05 / hist-threshold=0.03 / no-opt-cu-delta-qp / no-aq-motion / hdr10 / hdr10-opt / no-dhdr10-opt / no-idr-recovery-sei / analysis-reuse-level=0 / analysis-save-reuse-level=0 / analysis-load-reuse-level=0 / scale-factor=0 / refine-intra=0 / refine-inter=0 / refine-mv=1 / refine-ctu-distortion=0 / no-limit-sao / ctu-info=0 / no-lowpass-dct / refine-analysis-type=0 / copy-pic=1 / max-ausize-factor=1.0 / no-dynamic-refine / no-single-sei / no-hevc-aq / no-svt / no-field / qp-adaptation-range=1.00 / scenecut-aware-qp=0conformance-window-offsets / right=0 / bottom=0 / decoder-max-rate=0 / no-vbv-live-multi-pass
  36. Language                                 : English
  37. Default                                  : Yes
  38. Forced                                   : No
  39. Color range                              : Limited
  40. Color primaries                          : BT.2020
  41. Transfer characteristics                 : PQ
  42. Matrix coefficients                      : BT.2020 non-constant
  43. Mastering display color primaries        : Display P3
  44. Mastering display luminance              : min: 0.0001 cd/m2, max: 1000 cd/m2

  45. Audio
  46. ID                                       : 2
  47. Format                                   : DTS XLL
  48. Format/Info                              : Digital Theater Systems
  49. Commercial name                          : DTS-HD Master Audio
  50. Codec ID                                 : A_DTS
  51. Duration                                 : 2 h 35 min
  52. Bit rate mode                            : Variable
  53. Bit rate                                 : 2 005 kb/s
  54. Channel(s)                               : 6 channels
  55. Channel layout                           : C L R Ls Rs LFE
  56. Sampling rate                            : 48.0 kHz
  57. Frame rate                               : 93.750 FPS (512 SPF)
  58. Bit depth                                : 24 bits
  59. Compression mode                         : Lossless
  60. Stream size                              : 2.17 GiB (7%)
  61. Title                                    : English DTS-HD Master Audio 5.1 @ 2005 kbps
  62. Language                                 : English
  63. Default                                  : Yes
  64. Forced                                   : No

  65. Text #1
  66. ID                                       : 3
  67. Format                                   : PGS
  68. Codec ID                                 : S_HDMV/PGS
  69. Codec ID/Info                            : Picture based subtitle format used on BDs/HD-DVDs
  70. Duration                                 : 2 h 32 min
  71. Bit rate                                 : 30.0 kb/s
  72. Count of elements                        : 3192
  73. Stream size                              : 32.6 MiB (0%)
  74. Title                                    : Eng/SUP
  75. Language                                 : English
  76. Default                                  : No
  77. Forced                                   : No

  78. Text #2
  79. ID                                       : 4
  80. Format                                   : PGS
  81. Codec ID                                 : S_HDMV/PGS
  82. Codec ID/Info                            : Picture based subtitle format used on BDs/HD-DVDs
  83. Duration                                 : 2 h 29 min
  84. Bit rate                                 : 32.1 kb/s
  85. Count of elements                        : 2590
  86. Stream size                              : 34.3 MiB (0%)
  87. Title                                    : Chs/SUP  简体
  88. Language                                 : Chinese
  89. Default                                  : Yes
  90. Forced                                   : No

  91. Text #3
  92. ID                                       : 5
  93. Format                                   : PGS
  94. Codec ID                                 : S_HDMV/PGS
  95. Codec ID/Info                            : Picture based subtitle format used on BDs/HD-DVDs
  96. Duration                                 : 2 h 29 min
  97. Bit rate                                 : 33.2 kb/s
  98. Count of elements                        : 2590
  99. Stream size                              : 35.5 MiB (0%)
  100. Title                                    : Cht/SUP  繁体
  101. Language                                 : Chinese
  102. Default                                  : No
  103. Forced                                   : No

  104. Menu
  105. 00:00:00.000                             : en:第 01 章
  106. 00:10:59.408                             : en:第 02 章
  107. 00:23:46.590                             : en:第 03 章
  108. 00:31:14.705                             : en:第 04 章
  109. 00:44:34.463                             : en:第 05 章
  110. 00:58:15.992                             : en:第 06 章
  111. 01:07:20.911                             : en:第 07 章
  112. 01:18:48.765                             : en:第 08 章
  113. 01:29:39.039                             : en:第 09 章
  114. 01:37:29.467                             : en:第 10 章
  115. 01:43:54.310                             : en:第 11 章
  116. 01:52:09.555                             : en:第 12 章
  117. 02:04:37.886                             : en:第 13 章
  118. 02:13:01.430                             : en:第 14 章
  119. 02:22:33.960                             : en:第 15 章
  120. 02:28:10.172                             : en:第 16 章




下载地址:

Robin.Hood.Prince.of.Thieves.1991.Extended.UHD.BluRay.2160p.DTS-HD.MA5.1.x265.10.torrent

BT9527电影天堂 1、BT9527电影天堂提供的BT文件均来源于互联网抓取,只供网友学习交流、技术提升使用。
2、我们遵守BitTorrent点对点协议原则,任何版权问题请联系原资源发布商,我们不处理任何版权纠纷,谢谢!如有争议请联系邮箱:BT9527#hotmail.com(#换成@)
3、如果您发现某页面或地址有错误,请联系站长邮箱BT9527#hotmail.com(#换成@),我们会尽快处理。您的热心是对BT9527电影天堂最大的支持。
4、本站建议去正规影院观看电影以支持电影行业发展。
最新回复 (1)
  • 天籁之音 2月前
    2
    经典电影,最具传奇性的罗宾汉电影!

你可以在 登录 or 注册 后,对此帖发表评论!

返回