养鬼吃人[中文字幕].Hellraiser.1987.BluRay.1080p.DTS-HD.MA.5.1.x265.10bit-DreamHD 9.76GB

版主小s 3月前 130

✔资源类型:暂未分类   ✔电影年份:更 早   ✔电影地区:欧美   ✔电影分类:恐怖

◎标  题 养鬼吃人
◎译  名 猛鬼追魂(港)
◎片  名 Hellraiser
◎年  代 1987
◎产  地 英国
◎类  别 恐怖
◎语  言 英语
◎上映日期 1987年9月18日
◎IMDb评分 7.0/10 (110460人评价)
◎IMDb链接 https://www.imdb.com/title/tt0093177/
◎豆瓣评分 7.4/10 (10953人评价)
◎豆瓣链接 https://movie.douban.com/subject/1293198/
◎片  长 94 分钟
◎导  演 克莱夫·巴克
◎编  剧 克莱夫·巴克
◎演  员 安德鲁·罗宾逊
       克莱尔·希金斯
       阿什丽·劳伦斯
       Sean Chapman

◎简  介
  英国人弗兰克•科顿(Sean Chapman 饰)在北非发现一个神奇的魔方,回到家后,弗兰克通过某种神秘的仪式打开了魔方和另一个世界的通道,魔鬼赛诺贝斯降临人间,弗兰克也为其所杀。在此之后,弗兰克的哥哥莱瑞(Andrew Robinson 饰)和妻子朱莉(Clare Higgins 饰)搬到这座房子里。朱莉是莱瑞的新任妻子,她曾背着丈夫和弗兰克有染。
                                    
                                莱瑞搬家具时不慎弄伤右手,血滴到阁楼地板上,偏巧使埋在下面的弗兰克得以复苏。为了使情人恢复本来面貌,朱莉开始想方设法为其奉上活人的血肉……
                                    
                                本片是惊悚小说家可利夫•巴克(Clive Barker)根据自己的同名作品改编,并荣获1988年亚佛里亚兹奇幻电影节恐怖单元奖、1988年葡萄牙奇幻国际电影节影评人奖。
  1. ##### MediaInfo ######
  2. General
  3. Unique ID                                : 2306110618702143162259084023232047970 (0x1BC240829D1149669D3F4263A61AB62)
  4. Complete name                            : Hellraiser.1987.BluRay.1080p.DTS-HD.MA.5.1.x265.10bit-DreamHD.mkv
  5. Format                                   : Matroska
  6. Format version                           : Version 4
  7. File size                                : 9.76 GiB
  8. Duration                                 : 1 h 33 min
  9. Overall bit rate mode                    : Variable
  10. Overall bit rate                         : 15.0 Mb/s
  11. Encoded date                             : UTC 2021-12-16 14:13:54
  12. Writing application                      : mkvmerge v58.0.0 ('Supper's Ready') 64-bit
  13. Writing library                          : libebml v1.4.2 + libmatroska v1.6.4

  14. Video
  15. ID                                       : 1
  16. Format                                   : HEVC
  17. Format/Info                              : High Efficiency Video Coding
  18. Format profile                           : Main 10@L5.1@High
  19. Codec ID                                 : V_MPEGH/ISO/HEVC
  20. Duration                                 : 1 h 33 min
  21. Bit rate                                 : 12.9 Mb/s
  22. Width                                    : 1 920 pixels
  23. Height                                   : 1 036 pixels
  24. Display aspect ratio                     : 1.85:1
  25. Frame rate mode                          : Constant
  26. Frame rate                               : 23.976 (24000/1001) FPS
  27. Color space                              : YUV
  28. Chroma subsampling                       : 4:2:0 (Type 2)
  29. Bit depth                                : 10 bits
  30. Bits/(Pixel*Frame)                       : 0.271
  31. Stream size                              : 8.43 GiB (86%)
  32. Writing library                          : x265 3.5+2-g2b25c9ba0+45:[Windows][GCC 10.2.0][64 bit] Yuuki 10bit
  33. Encoding settings                        : rc=crf / crf=16.0000 / qcomp=0.60 / qpstep=4 / stats-write=0 / stats-read=0 / vbv-maxrate=160000 / vbv-bufsize=160000 / vbv-init=0.9 / min-vbv-fullness=50.0 / max-vbv-fullness=80.0 / crf-max=0.0 / crf-min=0.0 / no-lossless / no-cu-lossless / aq-mode=1 / aq-strength=1.00 / cbqpoffs=0 / crqpoffs=0 / ipratio=1.40 / pbratio=1.30 / psy-rd=2.00 / psy-rdoq=0.00 / deblock=0:0 / ref=6 / limit-refs=1 / no-limit-modes / bframes=14 / b-adapt=2 / bframe-bias=0 / b-pyramid / b-intra / weightp / weightb / min-keyint=23 / max-keyint=250 / rc-lookahead=75 / gop-lookahead=0 / scenecut=40 / hist-scenecut=0 / radl=0 / max-cu-size=32 / min-cu-size=8 / me=3 / subme=7 / merange=48 / rdoq-level=0 / rd=4 / rdpenalty=2 / dynamic-rd=0.00 / no-rd-refine / ----- / cutree / sao / no-rect / no-amp / no-open-gop / wpp / no-pmode / no-pme / no-psnr / no-ssim / nr-intra=0 / nr-inter=0 / no-constrained-intra / no-strong-intra-smoothing / max-tu-size=32 / tu-inter-depth=1 / tu-intra-depth=1 / limit-tu=0 / qg-size=32 / qpmax=69 / qpmin=0 / ----- / cpuid=1111039 / frame-threads=5 / numa-pools=32 / log-level=2 / input-csp=1 / input-res=1920x1036 / interlace=0 / level-idc=51 / high-tier=1 / uhd-bd=0 / no-allow-non-conformance / no-repeat-headers / no-aud / no-hrd / info / hash=0 / no-temporal-layers / lookahead-slices=6 / no-splice / no-intra-refresh / no-ssim-rd / signhide / no-tskip / max-merge=3 / temporal-mvp / no-frame-dup / hme / Level / merange / L0,L1,L2=24,36,48 / no-analyze-src-pics / no-sao-non-deblock / selective-sao=4 / early-skip / rskip / no-fast-intra / no-tskip-fast / no-splitrd-skip / zone-count=0 / no-strict-cbr / no-rc-grain / no-const-vbv / sar=0 / overscan=0 / videoformat=5 / range=0 / colorprim=1 / transfer=1 / colormatrix=1 / chromaloc=1 / chromaloc-top=2 / chromaloc-bottom=2 / display-window=0 / cll=0,0 / min-luma=0 / max-luma=1023 / log2-max-poc-lsb=8 / vui-timing-info / vui-hrd-info / slices=1 / no-opt-qp-pps / no-opt-ref-list-length-pps / no-multi-pass-opt-rps / scenecut-bias=0.05 / hist-threshold=0.03 / no-opt-cu-delta-qp / aq-motion / no-hdr10 / no-hdr10-opt / no-dhdr10-opt / no-idr-recovery-sei / analysis-reuse-level=0 / analysis-save-reuse-level=0 / analysis-load-reuse-level=0 / scale-factor=0 / refine-intra=0 / refine-inter=0 / refine-mv=1 / refine-ctu-distortion=0 / no-limit-sao / ctu-info=0 / no-lowpass-dct / refine-analysis-type=0 / copy-pic=1 / max-ausize-factor=1.0 / no-dynamic-refine / no-single-sei / no-hevc-aq / no-svt / no-field / qp-adaptation-range=1.00 / scenecut-aware-qp=0conformance-window-offsets / right=0 / bottom=0 / decoder-max-rate=0 / no-vbv-live-multi-pass
  34. Default                                  : Yes
  35. Forced                                   : No
  36. Color range                              : Limited
  37. Color primaries                          : BT.709
  38. Transfer characteristics                 : BT.709
  39. Matrix coefficients                      : BT.709

  40. Audio
  41. ID                                       : 2
  42. Format                                   : DTS XLL
  43. Format/Info                              : Digital Theater Systems
  44. Commercial name                          : DTS-HD Master Audio
  45. Codec ID                                 : A_DTS
  46. Duration                                 : 1 h 33 min
  47. Bit rate mode                            : Variable
  48. Bit rate                                 : 2 003 kb/s
  49. Channel(s)                               : 6 channels
  50. Channel layout                           : C L R Ls Rs LFE
  51. Sampling rate                            : 48.0 kHz
  52. Frame rate                               : 93.750 FPS (512 SPF)
  53. Bit depth                                : 16 bits
  54. Compression mode                         : Lossless
  55. Stream size                              : 1.31 GiB (13%)
  56. Language                                 : English
  57. Default                                  : Yes
  58. Forced                                   : No

  59. Text #1
  60. ID                                       : 3
  61. Format                                   : PGS
  62. Muxing mode                              : zlib
  63. Codec ID                                 : S_HDMV/PGS
  64. Codec ID/Info                            : Picture based subtitle format used on BDs/HD-DVDs
  65. Duration                                 : 1 h 28 min
  66. Bit rate                                 : 14.5 kb/s
  67. Count of elements                        : 1170
  68. Stream size                              : 9.16 MiB (0%)
  69. Language                                 : English
  70. Default                                  : Yes
  71. Forced                                   : No

  72. Text #2
  73. ID                                       : 4
  74. Format                                   : PGS
  75. Muxing mode                              : zlib
  76. Codec ID                                 : S_HDMV/PGS
  77. Codec ID/Info                            : Picture based subtitle format used on BDs/HD-DVDs
  78. Duration                                 : 1 h 29 min
  79. Bit rate                                 : 16.4 kb/s
  80. Count of elements                        : 1656
  81. Stream size                              : 10.5 MiB (0%)
  82. Language                                 : Chinese
  83. Default                                  : Yes
  84. Forced                                   : No

  85. Text #3
  86. ID                                       : 5
  87. Format                                   : PGS
  88. Muxing mode                              : zlib
  89. Codec ID                                 : S_HDMV/PGS
  90. Codec ID/Info                            : Picture based subtitle format used on BDs/HD-DVDs
  91. Duration                                 : 1 h 29 min
  92. Bit rate                                 : 16.7 kb/s
  93. Count of elements                        : 1656
  94. Stream size                              : 10.7 MiB (0%)
  95. Language                                 : Chinese
  96. Default                                  : Yes
  97. Forced                                   : No

  98. Text #4
  99. ID                                       : 6
  100. Format                                   : PGS
  101. Muxing mode                              : zlib
  102. Codec ID                                 : S_HDMV/PGS
  103. Codec ID/Info                            : Picture based subtitle format used on BDs/HD-DVDs
  104. Duration                                 : 1 h 29 min
  105. Bit rate                                 : 24.6 kb/s
  106. Count of elements                        : 1656
  107. Stream size                              : 15.8 MiB (0%)
  108. Language                                 : Chinese
  109. Default                                  : Yes
  110. Forced                                   : No

  111. Text #5
  112. ID                                       : 7
  113. Format                                   : PGS
  114. Muxing mode                              : zlib
  115. Codec ID                                 : S_HDMV/PGS
  116. Codec ID/Info                            : Picture based subtitle format used on BDs/HD-DVDs
  117. Duration                                 : 1 h 29 min
  118. Bit rate                                 : 24.9 kb/s
  119. Count of elements                        : 1656
  120. Stream size                              : 15.9 MiB (0%)
  121. Language                                 : Chinese
  122. Default                                  : Yes
  123. Forced                                   : No

  124. Menu
  125. 00:00:00.000                             : zh:第 01 章
  126. 00:01:53.238                             : zh:第 02 章
  127. 00:05:26.076                             : zh:第 03 章
  128. 00:11:08.835                             : zh:第 04 章
  129. 00:19:00.765                             : zh:第 05 章
  130. 00:28:49.436                             : zh:第 06 章
  131. 00:38:38.942                             : zh:第 07 章
  132. 00:46:34.583                             : zh:第 08 章
  133. 00:54:14.668                             : zh:第 09 章
  134. 01:00:50.647                             : zh:第 10 章
  135. 01:10:40.153                             : zh:第 11 章
  136. 01:19:00.027                             : zh:第 12 章




下载地址:

Hellraiser.1987.BluRay.1080p.DTS-HD.MA.5.1.x265.10bit-DreamHD.torrent

BT9527电影天堂 1、BT9527电影天堂提供的BT文件均来源于互联网抓取,只供网友学习交流、技术提升使用。
2、我们遵守BitTorrent点对点协议原则,任何版权问题请联系原资源发布商,我们不处理任何版权纠纷,谢谢!如有争议请联系邮箱:BT9527#hotmail.com(#换成@)
3、如果您发现某页面或地址有错误,请联系站长邮箱BT9527#hotmail.com(#换成@),我们会尽快处理。您的热心是对BT9527电影天堂最大的支持。
4、本站建议去正规影院观看电影以支持电影行业发展。
最新回复 (0)

你可以在 登录 or 注册 后,对此帖发表评论!

返回
发新帖