太空一号[中文字幕].Lockout.2012.BluRay.1080p.DTS-HDMA.5.1.x265.10bit-DreamHD 6.39GB

版主小s 3月前 148

✔资源类型:暂未分类   ✔电影年份:2012   ✔电影地区:欧美   ✔电影分类:动作

◎标  题 太空一号
◎译  名 拯救太空1号(港) / 天外封锁线(台) / 反锁 / 封锁 / 当心 / 锁定 / Lock-out / MS One: Maximum Security
◎片  名 Lockout
◎年  代 2012
◎产  地 美国 / 法国
◎类  别 动作 / 科幻 / 惊悚
◎语  言 英语
◎上映日期 2012-08-07(中国大陆) / 2012-04-18(法国)
◎IMDb评分 6/10 (99142人评价)
◎IMDb链接 https://www.imdb.com/title/tt1592525/
◎豆瓣评分 6.2/10 (31393人评价)
◎豆瓣链接 https://movie.douban.com/subject/4301662/
◎片  长 95分钟
◎导  演 詹姆斯·马瑟 James Mather
       斯蒂芬·圣·莱杰 Stephen St. Leger
◎编  剧 吕克·贝松 Luc Besson
       詹姆斯·马瑟 James Mather
       斯蒂芬·圣·莱杰 Stephen St. Leger
◎演  员 盖·皮尔斯 Guy Pearce
       玛姬·格蕾斯 Maggie Grace
       彼得·斯特曼 Peter Stormare
       约瑟夫·吉尔根 Joseph Gilgun
       文森特·里根 Vincent Regan
       连尼·詹姆斯 Lennie James
       博扬·佩里奇 Bojan Peric
       安妮-索伦娜·哈特 Anne-Solenne Hatte
       吕克·贝松 Luc Besson
       奥利维耶·贝里奥 Olivier Bériot

◎简  介
  未来世界,美国开发出名为“太空一号”的空间站,实则是一座戒备森严的最高警戒监狱,这里现关押着约500名罪大恶极的囚徒,他们无一例外被冷冻起来,处于昏睡之中。某日,现任美国总统的女儿艾米丽·沃纳克(玛姬·格蕾斯 Maggie Grace 饰)为考察人权问题登上太空一号,谁知在对犯人采访时意外发生,一阵混乱过后,所有的罪犯都从沉睡中苏醒,太空一号瞬间被占领,艾米丽以及工作人员沦为人质。与此同时,特工斯诺(盖·皮尔斯 Guy Pearce 饰)遭到陷害,即将遣送太空一号。可是为了营救总统的女儿,他短暂获得了自由,由此进入太空一号寻找目标人质以及掌握着他被陷害重要证据的搭档梅斯。                                    
                                以少敌多的对决在外太空就此展开……
  1. ##### MediaInfo ######
  2. General
  3. Unique ID                                : 336946577073120255232868533826223778918 (0xFD7D8CDCD0FD9044AA4B5F821F7AAC66)
  4. Complete name                            : Lockout.2012.BluRay.1080p.DTS-HDMA.5.1.x265.10bit-DreamHD.mkv
  5. Format                                   : Matroska
  6. Format version                           : Version 4
  7. File size                                : 6.39 GiB
  8. Duration                                 : 1 h 35 min
  9. Overall bit rate mode                    : Variable
  10. Overall bit rate                         : 9 595 kb/s
  11. Encoded date                             : UTC 2022-04-29 18:34:50
  12. Writing application                      : mkvmerge v64.0.0 ('Willows') 64-bit
  13. Writing library                          : libebml v1.4.2 + libmatroska v1.6.4

  14. Video
  15. ID                                       : 1
  16. Format                                   : HEVC
  17. Format/Info                              : High Efficiency Video Coding
  18. Format profile                           : Main 10@L5.1@High
  19. Codec ID                                 : V_MPEGH/ISO/HEVC
  20. Duration                                 : 1 h 35 min
  21. Bit rate                                 : 5 386 kb/s
  22. Width                                    : 1 920 pixels
  23. Height                                   : 804 pixels
  24. Display aspect ratio                     : 2.40:1
  25. Frame rate mode                          : Constant
  26. Frame rate                               : 23.976 (23976/1000) FPS
  27. Color space                              : YUV
  28. Chroma subsampling                       : 4:2:0
  29. Bit depth                                : 10 bits
  30. Bits/(Pixel*Frame)                       : 0.146
  31. Stream size                              : 3.59 GiB (56%)
  32. Writing library                          : x265 3.5+20-17839cc0d:[Windows][MSVC 1930][64 bit] 10bit
  33. Encoding settings                        : cpuid=1111039 / frame-threads=4 / numa-pools=24 / wpp / no-pmode / no-pme / no-psnr / no-ssim / log-level=2 / input-csp=1 / input-res=1920x804 / interlace=0 / total-frames=0 / level-idc=51 / high-tier=1 / uhd-bd=0 / ref=6 / no-allow-non-conformance / repeat-headers / annexb / no-aud / no-eob / no-eos / no-hrd / info / hash=0 / no-temporal-layers / no-open-gop / min-keyint=23 / keyint=250 / gop-lookahead=0 / bframes=8 / b-adapt=2 / b-pyramid / bframe-bias=0 / rc-lookahead=24 / lookahead-slices=5 / scenecut=40 / no-hist-scenecut / radl=0 / no-splice / no-intra-refresh / ctu=64 / min-cu-size=8 / no-rect / no-amp / max-tu-size=32 / tu-inter-depth=1 / tu-intra-depth=1 / limit-tu=0 / rdoq-level=0 / dynamic-rd=0.00 / no-ssim-rd / signhide / no-tskip / nr-intra=0 / nr-inter=0 / no-constrained-intra / no-strong-intra-smoothing / max-merge=3 / limit-refs=1 / no-limit-modes / me=2 / subme=7 / merange=48 / temporal-mvp / no-frame-dup / no-hme / weightp / weightb / no-analyze-src-pics / deblock=0:0 / sao / no-sao-non-deblock / rd=4 / selective-sao=4 / early-skip / rskip / no-fast-intra / no-tskip-fast / no-cu-lossless / b-intra / no-splitrd-skip / rdpenalty=0 / psy-rd=2.00 / psy-rdoq=0.00 / no-rd-refine / no-lossless / cbqpoffs=0 / crqpoffs=0 / rc=crf / crf=17.0 / qcomp=0.60 / qpstep=4 / stats-write=0 / stats-read=0 / vbv-maxrate=160000 / vbv-bufsize=160000 / vbv-init=0.9 / min-vbv-fullness=50.0 / max-vbv-fullness=80.0 / crf-max=0.0 / crf-min=0.0 / ipratio=1.40 / pbratio=1.30 / aq-mode=3 / aq-strength=1.00 / cutree / zone-count=0 / no-strict-cbr / qg-size=32 / no-rc-grain / qpmax=69 / qpmin=0 / no-const-vbv / sar=0 / overscan=0 / videoformat=5 / range=0 / colorprim=2 / transfer=2 / colormatrix=2 / chromaloc=0 / display-window=0 / cll=0,0 / min-luma=0 / max-luma=1023 / log2-max-poc-lsb=8 / vui-timing-info / vui-hrd-info / slices=1 / no-opt-qp-pps / no-opt-ref-list-length-pps / no-multi-pass-opt-rps / scenecut-bias=0.05 / hist-threshold=0.03 / no-opt-cu-delta-qp / aq-motion / no-hdr10 / no-hdr10-opt / no-dhdr10-opt / no-idr-recovery-sei / analysis-reuse-level=0 / analysis-save-reuse-level=0 / analysis-load-reuse-level=0 / scale-factor=0 / refine-intra=0 / refine-inter=0 / refine-mv=1 / refine-ctu-distortion=0 / no-limit-sao / ctu-info=0 / no-lowpass-dct / refine-analysis-type=0 / copy-pic=1 / max-ausize-factor=1.0 / no-dynamic-refine / no-single-sei / no-hevc-aq / no-svt / no-field / qp-adaptation-range=1.00 / scenecut-aware-qp=0conformance-window-offsets / right=0 / bottom=0 / decoder-max-rate=0 / no-vbv-live-multi-pass
  34. Language                                 : English
  35. Default                                  : Yes
  36. Forced                                   : No

  37. Audio
  38. ID                                       : 2
  39. Format                                   : DTS XLL
  40. Format/Info                              : Digital Theater Systems
  41. Commercial name                          : DTS-HD Master Audio
  42. Codec ID                                 : A_DTS
  43. Duration                                 : 1 h 35 min
  44. Bit rate mode                            : Variable
  45. Bit rate                                 : 4 155 kb/s
  46. Channel(s)                               : 6 channels
  47. Channel layout                           : C L R Ls Rs LFE
  48. Sampling rate                            : 48.0 kHz
  49. Frame rate                               : 93.750 FPS (512 SPF)
  50. Bit depth                                : 24 bits
  51. Compression mode                         : Lossless
  52. Stream size                              : 2.77 GiB (43%)
  53. Language                                 : English
  54. Default                                  : Yes
  55. Forced                                   : No

  56. Text #1
  57. ID                                       : 3
  58. Format                                   : PGS
  59. Muxing mode                              : zlib
  60. Codec ID                                 : S_HDMV/PGS
  61. Codec ID/Info                            : Picture based subtitle format used on BDs/HD-DVDs
  62. Duration                                 : 1 h 32 min
  63. Bit rate                                 : 36.5 kb/s
  64. Count of elements                        : 3515
  65. Stream size                              : 24.3 MiB (0%)
  66. Language                                 : Chinese
  67. Default                                  : Yes
  68. Forced                                   : No

  69. Text #2
  70. ID                                       : 4
  71. Format                                   : PGS
  72. Muxing mode                              : zlib
  73. Codec ID                                 : S_HDMV/PGS
  74. Codec ID/Info                            : Picture based subtitle format used on BDs/HD-DVDs
  75. Duration                                 : 1 h 32 min
  76. Bit rate                                 : 57.9 kb/s
  77. Count of elements                        : 3515
  78. Stream size                              : 38.4 MiB (1%)
  79. Language                                 : Chinese
  80. Default                                  : Yes
  81. Forced                                   : No

  82. Menu
  83. 00:00:00.000                             : zh:Chapter 01
  84. 00:05:26.201                             : zh:Chapter 02
  85. 00:10:16.991                             : zh:Chapter 03
  86. 00:15:19.919                             : zh:Chapter 04
  87. 00:22:28.973                             : zh:Chapter 05
  88. 00:29:18.090                             : zh:Chapter 06
  89. 00:35:32.839                             : zh:Chapter 07
  90. 00:40:14.662                             : zh:Chapter 08
  91. 00:45:55.920                             : zh:Chapter 09
  92. 00:50:47.962                             : zh:Chapter 10
  93. 00:55:28.575                             : zh:Chapter 11
  94. 01:00:47.727                             : zh:Chapter 12
  95. 01:05:55.869                             : zh:Chapter 13
  96. 01:12:04.779                             : zh:Chapter 14
  97. 01:17:49.290                             : zh:Chapter 15
  98. 01:22:34.950                             : zh:Chapter 16




下载地址:

Lockout.2012.BluRay.1080p.DTS-HDMA.5.1.x265.10bit-DreamHD.torrent

BT9527电影天堂 1、BT9527电影天堂提供的BT文件均来源于互联网抓取,只供网友学习交流、技术提升使用。
2、我们遵守BitTorrent点对点协议原则,任何版权问题请联系原资源发布商,我们不处理任何版权纠纷,谢谢!如有争议请联系邮箱:BT9527#hotmail.com(#换成@)
3、如果您发现某页面或地址有错误,请联系站长邮箱BT9527#hotmail.com(#换成@),我们会尽快处理。您的热心是对BT9527电影天堂最大的支持。
4、本站建议去正规影院观看电影以支持电影行业发展。
最新回复 (0)

你可以在 登录 or 注册 后,对此帖发表评论!

返回
发新帖