地狱犬[简繁英字幕].Hell.Dogs.2022.1080p.NF.WEB-DL.DDP5.1.x264-MOMOWEB 3.64GB

版主小s 9月前 453

✔资源类型:WEB-1080P   ✔电影年份:2022   ✔电影地区:日本   ✔电影分类:剧情

◎标  题 地狱犬
◎译  名 Hell Dogs
◎片  名 ヘルドッグス
◎年  代 2022
◎产  地 日本
◎类  别 剧情 / 动作
◎语  言 日语
◎上映日期 2022-09-16(日本)
◎IMDb评分 6.7/10 (275人评价)
◎IMDb链接 https://www.imdb.com/title/tt19845414/
◎豆瓣链接 https://movie.douban.com/subject/35683701/
◎导  演 原田真人 Masato Harada
◎编  剧 原田真人 Masato Harada
◎演  员 冈田准一 Junichi Okada
       坂口健太郎 Kentaro Sakaguchi
       松冈茉优 Mayu Matsuoka
       北村一辉 Kazuki Kitamura
       大竹忍 Shinobu Ôtake
       金田哲 Satoshi Kanada
       木龙麻生 Mai Kiryû
       中岛亚梨沙 Arisa Nakajima
       大場泰正 Yasumasa Ohba
       吉原光夫 Mitsuo Yoshihara
       尾上右近
       田中美央 Mio Tanaka
       村上淳 Jun Murakami
       酒向芳 Yoshi Sakou
       石原贵雅 Miyavi

◎简  介
  本片改编自深町秋生同名小说。冈田准一将扮演潜入黑社会的原刑警兼高昭吾。兼高在失去自己的爱人之后,无法自拔,陷入深渊。成为了一个为了复仇而活着的人。警方利用他的精神状态,强行让其潜入黑社会...坂口健太郎则将饰演黑道组织成员室岡秀喜。
  1. ##### MediaInfo ######
  2. General
  3. Unique ID                                : 227758173093860375354996013439642045847 (0xAB58A0E992A9EE7F280A24BB36090D97)
  4. Complete name                            : Hell.Dogs.2022.1080p.NF.WEB-DL.DDP5.1.x264-MOMOWEB.mkv
  5. Format                                   : Matroska
  6. Format version                           : Version 4
  7. File size                                : 3.64 GiB
  8. Duration                                 : 2 h 17 min
  9. Overall bit rate mode                    : Variable
  10. Overall bit rate                         : 3 779 kb/s
  11. Movie name                               : Hell.Dogs.2022.1080p.NF.WEB-DL.DDP5.1.x264-PTerWEB
  12. Encoded date                             : UTC 2022-12-20 12:51:44
  13. Writing application                      : mkvmerge v72.0.0 ('Minuano (Six-eight)') 64-bit
  14. Writing library                          : libebml v1.4.4 + libmatroska v1.7.1

  15. Video
  16. ID                                       : 1
  17. Format                                   : AVC
  18. Format/Info                              : Advanced Video Codec
  19. Format profile                           : Main@L4
  20. Format settings                          : CABAC / 3 Ref Frames
  21. Format settings, CABAC                   : Yes
  22. Format settings, Reference frames        : 3 frames
  23. Codec ID                                 : V_MPEG4/ISO/AVC
  24. Duration                                 : 2 h 17 min
  25. Bit rate mode                            : Variable
  26. Bit rate                                 : 3 133 kb/s
  27. Nominal bit rate                         : 3 650 kb/s
  28. Maximum bit rate                         : 5 475 kb/s
  29. Width                                    : 1 920 pixels
  30. Height                                   : 1 080 pixels
  31. Display aspect ratio                     : 16:9
  32. Frame rate mode                          : Constant
  33. Frame rate                               : 23.976 (24000/1001) FPS
  34. Color space                              : YUV
  35. Chroma subsampling                       : 4:2:0
  36. Bit depth                                : 8 bits
  37. Scan type                                : Progressive
  38. Bits/(Pixel*Frame)                       : 0.063
  39. Stream size                              : 3.01 GiB (83%)
  40. Writing library                          : x264 core 148 r2727 7d026e8
  41. Encoding settings                        : cabac=1 / ref=3 / deblock=1:0:0 / analyse=0x1:0x111 / me=umh / subme=10 / psy=1 / psy_rd=1.00:0.00 / mixed_ref=1 / me_range=24 / chroma_me=1 / trellis=2 / 8x8dct=0 / cqm=0 / deadzone=21,11 / fast_pskip=1 / chroma_qp_offset=-2 / threads=8 / lookahead_threads=1 / sliced_threads=0 / nr=0 / decimate=1 / interlaced=0 / bluray_compat=0 / stitchable=1 / constrained_intra=0 / bframes=2 / b_pyramid=0 / b_adapt=2 / b_bias=0 / direct=3 / weightb=1 / open_gop=0 / weightp=2 / keyint=250 / keyint_min=23 / scenecut=0 / intra_refresh=0 / rc_lookahead=48 / rc=2pass / mbtree=1 / bitrate=3650 / ratetol=1.0 / qcomp=0.50 / qpmin=6 / qpmax=51 / qpstep=4 / cplxblur=20.0 / qblur=0.5 / vbv_maxrate=5475 / vbv_bufsize=7300 / nal_hrd=vbr / filler=0 / ip_ratio=1.40 / aq=1:1.00
  42. Default                                  : Yes
  43. Forced                                   : No

  44. Audio
  45. ID                                       : 2
  46. Format                                   : E-AC-3
  47. Format/Info                              : Enhanced AC-3
  48. Commercial name                          : Dolby Digital Plus
  49. Codec ID                                 : A_EAC3
  50. Duration                                 : 2 h 17 min
  51. Bit rate mode                            : Constant
  52. Bit rate                                 : 640 kb/s
  53. Channel(s)                               : 6 channels
  54. Channel layout                           : L R C LFE Ls Rs
  55. Sampling rate                            : 48.0 kHz
  56. Frame rate                               : 31.250 FPS (1536 SPF)
  57. Compression mode                         : Lossy
  58. Delay relative to video                  : -42 ms
  59. Stream size                              : 631 MiB (17%)
  60. Language                                 : Japanese
  61. Service kind                             : Complete Main
  62. Default                                  : Yes
  63. Forced                                   : No

  64. Text #1
  65. ID                                       : 3
  66. Format                                   : UTF-8
  67. Codec ID                                 : S_TEXT/UTF8
  68. Codec ID/Info                            : UTF-8 Plain Text
  69. Duration                                 : 2 h 15 min
  70. Bit rate                                 : 74 b/s
  71. Count of elements                        : 1666
  72. Stream size                              : 73.8 KiB (0%)
  73. Language                                 : Arabic
  74. Default                                  : No
  75. Forced                                   : No

  76. Text #2
  77. ID                                       : 4
  78. Format                                   : UTF-8
  79. Codec ID                                 : S_TEXT/UTF8
  80. Codec ID/Info                            : UTF-8 Plain Text
  81. Duration                                 : 2 h 15 min
  82. Bit rate                                 : 49 b/s
  83. Count of elements                        : 1636
  84. Stream size                              : 49.4 KiB (0%)
  85. Language                                 : Czech
  86. Default                                  : No
  87. Forced                                   : No

  88. Text #3
  89. ID                                       : 5
  90. Format                                   : UTF-8
  91. Codec ID                                 : S_TEXT/UTF8
  92. Codec ID/Info                            : UTF-8 Plain Text
  93. Duration                                 : 2 h 15 min
  94. Bit rate                                 : 49 b/s
  95. Count of elements                        : 1578
  96. Stream size                              : 48.9 KiB (0%)
  97. Language                                 : Danish
  98. Default                                  : No
  99. Forced                                   : No

  100. Text #4
  101. ID                                       : 6
  102. Format                                   : UTF-8
  103. Codec ID                                 : S_TEXT/UTF8
  104. Codec ID/Info                            : UTF-8 Plain Text
  105. Duration                                 : 2 h 15 min
  106. Bit rate                                 : 49 b/s
  107. Count of elements                        : 1648
  108. Stream size                              : 48.7 KiB (0%)
  109. Language                                 : German
  110. Default                                  : No
  111. Forced                                   : No

  112. Text #5
  113. ID                                       : 7
  114. Format                                   : UTF-8
  115. Codec ID                                 : S_TEXT/UTF8
  116. Codec ID/Info                            : UTF-8 Plain Text
  117. Duration                                 : 2 h 11 min
  118. Bit rate                                 : 89 b/s
  119. Count of elements                        : 1647
  120. Stream size                              : 86.0 KiB (0%)
  121. Language                                 : Greek
  122. Default                                  : No
  123. Forced                                   : No

  124. Text #6
  125. ID                                       : 8
  126. Format                                   : UTF-8
  127. Codec ID                                 : S_TEXT/UTF8
  128. Codec ID/Info                            : UTF-8 Plain Text
  129. Duration                                 : 2 h 11 min
  130. Bit rate                                 : 44 b/s
  131. Count of elements                        : 1636
  132. Stream size                              : 42.5 KiB (0%)
  133. Language                                 : English
  134. Default                                  : No
  135. Forced                                   : No

  136. Text #7
  137. ID                                       : 9
  138. Format                                   : UTF-8
  139. Codec ID                                 : S_TEXT/UTF8
  140. Codec ID/Info                            : UTF-8 Plain Text
  141. Duration                                 : 2 h 15 min
  142. Bit rate                                 : 49 b/s
  143. Count of elements                        : 1656
  144. Stream size                              : 48.8 KiB (0%)
  145. Title                                    : Espa?a
  146. Language                                 : Spanish
  147. Default                                  : No
  148. Forced                                   : No

  149. Text #8
  150. ID                                       : 10
  151. Format                                   : UTF-8
  152. Codec ID                                 : S_TEXT/UTF8
  153. Codec ID/Info                            : UTF-8 Plain Text
  154. Duration                                 : 2 h 15 min
  155. Bit rate                                 : 47 b/s
  156. Count of elements                        : 1654
  157. Stream size                              : 47.0 KiB (0%)
  158. Title                                    : Latinoamérica
  159. Language                                 : Spanish
  160. Default                                  : No
  161. Forced                                   : No

  162. Text #9
  163. ID                                       : 11
  164. Format                                   : UTF-8
  165. Codec ID                                 : S_TEXT/UTF8
  166. Codec ID/Info                            : UTF-8 Plain Text
  167. Duration                                 : 2 h 15 min
  168. Bit rate                                 : 48 b/s
  169. Count of elements                        : 1644
  170. Stream size                              : 48.4 KiB (0%)
  171. Language                                 : Finnish
  172. Default                                  : No
  173. Forced                                   : No

  174. Text #10
  175. ID                                       : 12
  176. Format                                   : UTF-8
  177. Codec ID                                 : S_TEXT/UTF8
  178. Codec ID/Info                            : UTF-8 Plain Text
  179. Duration                                 : 2 h 15 min
  180. Bit rate                                 : 52 b/s
  181. Count of elements                        : 1654
  182. Stream size                              : 52.4 KiB (0%)
  183. Language                                 : fil
  184. Default                                  : No
  185. Forced                                   : No

  186. Text #11
  187. ID                                       : 13
  188. Format                                   : UTF-8
  189. Codec ID                                 : S_TEXT/UTF8
  190. Codec ID/Info                            : UTF-8 Plain Text
  191. Duration                                 : 2 h 15 min
  192. Bit rate                                 : 49 b/s
  193. Count of elements                        : 1653
  194. Stream size                              : 49.3 KiB (0%)
  195. Language                                 : French
  196. Default                                  : No
  197. Forced                                   : No

  198. Text #12
  199. ID                                       : 14
  200. Format                                   : UTF-8
  201. Codec ID                                 : S_TEXT/UTF8
  202. Codec ID/Info                            : UTF-8 Plain Text
  203. Duration                                 : 2 h 15 min
  204. Bit rate                                 : 65 b/s
  205. Count of elements                        : 1665
  206. Stream size                              : 64.7 KiB (0%)
  207. Language                                 : Hebrew
  208. Default                                  : No
  209. Forced                                   : No

  210. Text #13
  211. ID                                       : 15
  212. Format                                   : UTF-8
  213. Codec ID                                 : S_TEXT/UTF8
  214. Codec ID/Info                            : UTF-8 Plain Text
  215. Duration                                 : 2 h 15 min
  216. Bit rate                                 : 42 b/s
  217. Count of elements                        : 1646
  218. Stream size                              : 42.3 KiB (0%)
  219. Language                                 : Croatian
  220. Default                                  : No
  221. Forced                                   : No

  222. Text #14
  223. ID                                       : 16
  224. Format                                   : UTF-8
  225. Codec ID                                 : S_TEXT/UTF8
  226. Codec ID/Info                            : UTF-8 Plain Text
  227. Duration                                 : 2 h 15 min
  228. Bit rate                                 : 48 b/s
  229. Count of elements                        : 1646
  230. Stream size                              : 48.4 KiB (0%)
  231. Language                                 : Hungarian
  232. Default                                  : No
  233. Forced                                   : No

  234. Text #15
  235. ID                                       : 17
  236. Format                                   : UTF-8
  237. Codec ID                                 : S_TEXT/UTF8
  238. Codec ID/Info                            : UTF-8 Plain Text
  239. Duration                                 : 2 h 15 min
  240. Bit rate                                 : 46 b/s
  241. Count of elements                        : 1654
  242. Stream size                              : 46.7 KiB (0%)
  243. Language                                 : Indonesian
  244. Default                                  : No
  245. Forced                                   : No

  246. Text #16
  247. ID                                       : 18
  248. Format                                   : UTF-8
  249. Codec ID                                 : S_TEXT/UTF8
  250. Codec ID/Info                            : UTF-8 Plain Text
  251. Duration                                 : 2 h 15 min
  252. Bit rate                                 : 47 b/s
  253. Count of elements                        : 1657
  254. Stream size                              : 46.8 KiB (0%)
  255. Language                                 : Italian
  256. Default                                  : No
  257. Forced                                   : No

  258. Text #17
  259. ID                                       : 19
  260. Format                                   : UTF-8
  261. Codec ID                                 : S_TEXT/UTF8
  262. Codec ID/Info                            : UTF-8 Plain Text
  263. Duration                                 : 2 h 16 min
  264. Bit rate                                 : 91 b/s
  265. Count of elements                        : 2328
  266. Stream size                              : 90.9 KiB (0%)
  267. Title                                    : SDH
  268. Language                                 : Japanese
  269. Default                                  : No
  270. Forced                                   : No

  271. Text #18
  272. ID                                       : 20
  273. Format                                   : UTF-8
  274. Codec ID                                 : S_TEXT/UTF8
  275. Codec ID/Info                            : UTF-8 Plain Text
  276. Duration                                 : 48 min 57 s
  277. Bit rate                                 : 1 b/s
  278. Count of elements                        : 11
  279. Stream size                              : 422 Bytes (0%)
  280. Title                                    : Forced
  281. Language                                 : Japanese
  282. Default                                  : No
  283. Forced                                   : Yes

  284. Text #19
  285. ID                                       : 21
  286. Format                                   : UTF-8
  287. Codec ID                                 : S_TEXT/UTF8
  288. Codec ID/Info                            : UTF-8 Plain Text
  289. Duration                                 : 2 h 15 min
  290. Bit rate                                 : 55 b/s
  291. Count of elements                        : 1662
  292. Stream size                              : 55.5 KiB (0%)
  293. Language                                 : Korean
  294. Default                                  : No
  295. Forced                                   : No

  296. Text #20
  297. ID                                       : 22
  298. Format                                   : UTF-8
  299. Codec ID                                 : S_TEXT/UTF8
  300. Codec ID/Info                            : UTF-8 Plain Text
  301. Duration                                 : 2 h 15 min
  302. Bit rate                                 : 47 b/s
  303. Count of elements                        : 1656
  304. Stream size                              : 47.1 KiB (0%)
  305. Language                                 : Malay
  306. Default                                  : No
  307. Forced                                   : No

  308. Text #21
  309. ID                                       : 23
  310. Format                                   : UTF-8
  311. Codec ID                                 : S_TEXT/UTF8
  312. Codec ID/Info                            : UTF-8 Plain Text
  313. Duration                                 : 2 h 15 min
  314. Bit rate                                 : 47 b/s
  315. Count of elements                        : 1576
  316. Stream size                              : 46.8 KiB (0%)
  317. Language                                 : Norwegian Bokmal
  318. Default                                  : No
  319. Forced                                   : No

  320. Text #22
  321. ID                                       : 24
  322. Format                                   : UTF-8
  323. Codec ID                                 : S_TEXT/UTF8
  324. Codec ID/Info                            : UTF-8 Plain Text
  325. Duration                                 : 2 h 15 min
  326. Bit rate                                 : 46 b/s
  327. Count of elements                        : 1631
  328. Stream size                              : 46.3 KiB (0%)
  329. Language                                 : Dutch
  330. Default                                  : No
  331. Forced                                   : No

  332. Text #23
  333. ID                                       : 25
  334. Format                                   : UTF-8
  335. Codec ID                                 : S_TEXT/UTF8
  336. Codec ID/Info                            : UTF-8 Plain Text
  337. Duration                                 : 2 h 15 min
  338. Bit rate                                 : 45 b/s
  339. Count of elements                        : 1643
  340. Stream size                              : 44.9 KiB (0%)
  341. Language                                 : Polish
  342. Default                                  : No
  343. Forced                                   : No

  344. Text #24
  345. ID                                       : 26
  346. Format                                   : UTF-8
  347. Codec ID                                 : S_TEXT/UTF8
  348. Codec ID/Info                            : UTF-8 Plain Text
  349. Duration                                 : 2 h 15 min
  350. Bit rate                                 : 47 b/s
  351. Count of elements                        : 1658
  352. Stream size                              : 47.4 KiB (0%)
  353. Title                                    : Brasil
  354. Language                                 : Portuguese
  355. Default                                  : No
  356. Forced                                   : No

  357. Text #25
  358. ID                                       : 27
  359. Format                                   : UTF-8
  360. Codec ID                                 : S_TEXT/UTF8
  361. Codec ID/Info                            : UTF-8 Plain Text
  362. Duration                                 : 2 h 15 min
  363. Bit rate                                 : 45 b/s
  364. Count of elements                        : 1656
  365. Stream size                              : 45.7 KiB (0%)
  366. Title                                    : Portugal
  367. Language                                 : Portuguese
  368. Default                                  : No
  369. Forced                                   : No

  370. Text #26
  371. ID                                       : 28
  372. Format                                   : UTF-8
  373. Codec ID                                 : S_TEXT/UTF8
  374. Codec ID/Info                            : UTF-8 Plain Text
  375. Duration                                 : 2 h 15 min
  376. Bit rate                                 : 47 b/s
  377. Count of elements                        : 1419
  378. Stream size                              : 46.8 KiB (0%)
  379. Language                                 : Romanian
  380. Default                                  : No
  381. Forced                                   : No

  382. Text #27
  383. ID                                       : 29
  384. Format                                   : UTF-8
  385. Codec ID                                 : S_TEXT/UTF8
  386. Codec ID/Info                            : UTF-8 Plain Text
  387. Duration                                 : 2 h 15 min
  388. Bit rate                                 : 75 b/s
  389. Count of elements                        : 1664
  390. Stream size                              : 74.9 KiB (0%)
  391. Language                                 : Russian
  392. Default                                  : No
  393. Forced                                   : No

  394. Text #28
  395. ID                                       : 30
  396. Format                                   : UTF-8
  397. Codec ID                                 : S_TEXT/UTF8
  398. Codec ID/Info                            : UTF-8 Plain Text
  399. Duration                                 : 2 h 15 min
  400. Bit rate                                 : 46 b/s
  401. Count of elements                        : 1654
  402. Stream size                              : 45.9 KiB (0%)
  403. Language                                 : Swedish
  404. Default                                  : No
  405. Forced                                   : No

  406. Text #29
  407. ID                                       : 31
  408. Format                                   : UTF-8
  409. Codec ID                                 : S_TEXT/UTF8
  410. Codec ID/Info                            : UTF-8 Plain Text
  411. Duration                                 : 2 h 15 min
  412. Bit rate                                 : 122 b/s
  413. Count of elements                        : 1665
  414. Stream size                              : 121 KiB (0%)
  415. Language                                 : Thai
  416. Default                                  : No
  417. Forced                                   : No

  418. Text #30
  419. ID                                       : 32
  420. Format                                   : UTF-8
  421. Codec ID                                 : S_TEXT/UTF8
  422. Codec ID/Info                            : UTF-8 Plain Text
  423. Duration                                 : 2 h 15 min
  424. Bit rate                                 : 51 b/s
  425. Count of elements                        : 1657
  426. Stream size                              : 51.1 KiB (0%)
  427. Language                                 : Turkish
  428. Default                                  : No
  429. Forced                                   : No

  430. Text #31
  431. ID                                       : 33
  432. Format                                   : UTF-8
  433. Codec ID                                 : S_TEXT/UTF8
  434. Codec ID/Info                            : UTF-8 Plain Text
  435. Duration                                 : 2 h 15 min
  436. Bit rate                                 : 79 b/s
  437. Count of elements                        : 1664
  438. Stream size                              : 78.7 KiB (0%)
  439. Language                                 : Ukrainian
  440. Default                                  : No
  441. Forced                                   : No

  442. Text #32
  443. ID                                       : 34
  444. Format                                   : UTF-8
  445. Codec ID                                 : S_TEXT/UTF8
  446. Codec ID/Info                            : UTF-8 Plain Text
  447. Duration                                 : 2 h 15 min
  448. Bit rate                                 : 66 b/s
  449. Count of elements                        : 1661
  450. Stream size                              : 66.2 KiB (0%)
  451. Language                                 : Vietnamese
  452. Default                                  : No
  453. Forced                                   : No

  454. Text #33
  455. ID                                       : 35
  456. Format                                   : UTF-8
  457. Codec ID                                 : S_TEXT/UTF8
  458. Codec ID/Info                            : UTF-8 Plain Text
  459. Duration                                 : 2 h 15 min
  460. Bit rate                                 : 44 b/s
  461. Count of elements                        : 1664
  462. Stream size                              : 44.7 KiB (0%)
  463. Title                                    : 中文(简体)
  464. Language                                 : Chinese
  465. Default                                  : No
  466. Forced                                   : No

  467. Text #34
  468. ID                                       : 36
  469. Format                                   : UTF-8
  470. Codec ID                                 : S_TEXT/UTF8
  471. Codec ID/Info                            : UTF-8 Plain Text
  472. Duration                                 : 2 h 15 min
  473. Bit rate                                 : 42 b/s
  474. Count of elements                        : 1663
  475. Stream size                              : 42.7 KiB (0%)
  476. Title                                    : 中文(繁體)
  477. Language                                 : Chinese
  478. Default                                  : No
  479. Forced                                   : No




下载地址:

Hell.Dogs.2022.1080p.NF.WEB-DL.DDP5.1.x264-MOMOWEB.torrent

BT9527电影天堂 1、BT9527电影天堂提供的BT文件均来源于互联网抓取,只供网友学习交流、技术提升使用。
2、我们遵守BitTorrent点对点协议原则,任何版权问题请联系原资源发布商,我们不处理任何版权纠纷,谢谢!如有争议请联系邮箱:BT9527#hotmail.com(#换成@)
3、如果您发现某页面或地址有错误,请联系站长邮箱BT9527#hotmail.com(#换成@),我们会尽快处理。您的热心是对BT9527电影天堂最大的支持。
4、本站建议去正规影院观看电影以支持电影行业发展。
最新回复 (0)

你可以在 登录 or 注册 后,对此帖发表评论!

返回