女警[中文字幕].Miss.and.Mrs.Cops.2019.BluRay.1080p.TrueHD5.1.x265.10bit-DreamHD 5.84GB

版主小s 3月前 527

✔资源类型:暂未分类   ✔电影年份:2019   ✔电影地区:韩国   ✔电影分类:喜剧

◎标  题 女警
◎译  名 陀枪师奶x新扎师姐(港) / 霹雳娇锋(台) / 女警探 / Girl Cops / Miss and Mrs. Cops
◎片  名 걸캅스
◎年  代 2019
◎产  地 韩国
◎类  别 喜剧 / 动作 / 悬疑 / 犯罪
◎语  言 韩语
◎上映日期 2019-05-09(韩国)
◎IMDb评分 6.1/10 (1220人评价)
◎IMDb链接 https://www.imdb.com/title/tt10161238/
◎豆瓣评分 6.9/10 (31637人评价)
◎豆瓣链接 https://movie.douban.com/subject/30204142/
◎片  长 107分钟
◎导  演 郑多元 Da-Won Jung
◎编  剧 郑多元 Da-Won Jung
       李才胤 Lee Jae Yoon
◎演  员 罗美兰 Mi-ran Ra
       李圣经 Sung-Kyung Lee
       尹相铉 Sang-hyun Yun
       崔秀英 Sooyoung Choi
       廉惠兰 Yum Hye-ran
       魏嘏隽 Ha-joon Wi
       朱宇宰 Woo-Jae Joo
       姜宏硕 Kang Hong-suk
       金道完 Do-wan Kim
       安昌焕 Chang-hwan An
       李贞敏 Jung-min Lee
       朴素恩 Park So-eun
       赵炳奎 Byeong-gyu Jo
       成东日 Dong-il Sung
       河正宇 Jung-woo Ha
       安宰弘 Jae-hong Ahn
       赵惠珠 Hye-joo Jo
       金敏京 Kim Min-Kyeong
       李来 Re Lee
       韩成天 Han Sung-chun
       金俊 Kim Jun
       崔惠珍 Choi Hye Jin
       许明行 Heo Myeong Haeng
       权泰浩 Tae-ho Kwon

◎简  介
  讲述虽然是传说中有名的Ace刑警,但在结婚后就到了民怨室工作的美英(罗美兰)和闯祸后被驱逐到民怨室的警察智慧(李圣经)相遇,偶然追赶犯罪事件的喜剧动作故事。                                    
                                故事中罗美兰饰演过去是机动队的王牌,结婚生子后放弃了梦想在民怨室担任主务工作的警察美英。李圣经饰演虽然在强力班抱有梦想但因为意欲过多接连发生事故后被派遣往民怨室的智慧。                                    
                                影片描写了两人偶然卷入犯罪事件,并一起扫荡犯人的喜剧过程。 罗美兰和李圣经虽然互相争吵的关系,但在抓捕犯人面前却不惜肆意展现义气的桀骜不驯的魅力,在调查过程中展现出的两位演员的武打动作也将给观众带来趣味性。                                    
                                ————翻译转自@罗美兰-中文饭团
  1. ##### MediaInfo ######
  2. General
  3. Unique ID                                : 291298128700622750615659470287369660909 (0xDB25FA97EF73D1859DEE39E06293E9ED)
  4. Complete name                            : Miss.and.Mrs.Cops.2019.BluRay.1080p.TrueHD5.1.x265.10bit-DreamHD.mkv
  5. Format                                   : Matroska
  6. Format version                           : Version 4
  7. File size                                : 5.84 GiB
  8. Duration                                 : 1 h 47 min
  9. Overall bit rate mode                    : Variable
  10. Overall bit rate                         : 7 815 kb/s
  11. Encoded date                             : UTC 2020-04-05 12:46:07
  12. Writing application                      : mkvmerge v41.0.0 ('Smarra') 64-bit
  13. Writing library                          : libebml v1.3.9 + libmatroska v1.5.2

  14. Video
  15. ID                                       : 1
  16. Format                                   : HEVC
  17. Format/Info                              : High Efficiency Video Coding
  18. Format profile                           : Main 10@L4@Main
  19. Codec ID                                 : V_MPEGH/ISO/HEVC
  20. Duration                                 : 1 h 47 min
  21. Bit rate                                 : 4 969 kb/s
  22. Width                                    : 1 920 pixels
  23. Height                                   : 804 pixels
  24. Display aspect ratio                     : 2.40:1
  25. Frame rate mode                          : Constant
  26. Frame rate                               : 24.000 FPS
  27. Color space                              : YUV
  28. Chroma subsampling                       : 4:2:0
  29. Bit depth                                : 10 bits
  30. Bits/(Pixel*Frame)                       : 0.134
  31. Stream size                              : 3.72 GiB (64%)
  32. Writing library                          : x265 3.2+7-gb291a1c95+26:[Windows][MSVC 1916][64 bit] Yuuki 10bit
  33. Encoding settings                        : rc=crf / crf=16.0000 / qcomp=0.60 / qpstep=4 / stats-write=0 / stats-read=0 / no-lossless / no-cu-lossless / aq-mode=3 / aq-strength=1.00 / cbqpoffs=0 / crqpoffs=0 / ipratio=1.40 / pbratio=1.30 / psy-rd=2.00 / psy-rdoq=0.00 / deblock=0:0 / ref=6 / limit-refs=1 / no-limit-modes / bframes=8 / b-adapt=2 / bframe-bias=0 / b-pyramid / b-intra / weightp / weightb / min-keyint=24 / max-keyint=250 / rc-lookahead=24 / gop-lookahead=0 / scenecut=40 / radl=0 / max-cu-size=64 / min-cu-size=8 / me=2 / subme=7 / merange=48 / rdoq-level=0 / rd=4 / rdpenalty=0 / dynamic-rd=0.00 / no-rd-refine / ----- / cutree / sao / no-rect / no-amp / no-open-gop / wpp / no-pmode / no-pme / no-psnr / no-ssim / nr-intra=0 / nr-inter=0 / no-constrained-intra / no-strong-intra-smoothing / max-tu-size=32 / tu-inter-depth=1 / tu-intra-depth=1 / limit-tu=0 / qg-size=32 / qpmax=69 / qpmin=0 / ----- / cpuid=1111039 / frame-threads=5 / numa-pools=36,36 / log-level=2 / input-csp=1 / input-res=1920x804 / interlace=0 / level-idc=0 / high-tier=1 / uhd-bd=0 / no-allow-non-conformance / repeat-headers / no-aud / no-hrd / info / hash=0 / no-temporal-layers / lookahead-slices=5 / no-splice / no-intra-refresh / no-ssim-rd / signhide / no-tskip / max-merge=3 / temporal-mvp / no-hme / no-analyze-src-pics / no-sao-non-deblock / selective-sao=4 / early-skip / rskip / no-fast-intra / no-tskip-fast / no-splitrd-skip / zone-count=0 / no-strict-cbr / no-rc-grain / no-const-vbv / sar=0 / overscan=0 / videoformat=5 / range=0 / colorprim=2 / transfer=2 / colormatrix=2 / chromaloc=0 / display-window=0 / cll=0,0 / min-luma=0 / max-luma=1023 / log2-max-poc-lsb=8 / vui-timing-info / vui-hrd-info / slices=1 / no-opt-qp-pps / no-opt-ref-list-length-pps / no-multi-pass-opt-rps / scenecut-bias=0.05 / no-opt-cu-delta-qp / aq-motion / no-hdr / no-hdr-opt / no-dhdr10-opt / no-idr-recovery-sei / analysis-reuse-level=5 / scale-factor=0 / refine-intra=0 / refine-inter=0 / refine-mv=1 / refine-ctu-distortion=0 / no-limit-sao / ctu-info=0 / no-lowpass-dct / refine-analysis-type=0 / copy-pic=1 / max-ausize-factor=1.0 / no-dynamic-refine / no-single-sei / no-hevc-aq / no-svt / no-field / qp-adaptation-range=1.00
  34. Default                                  : Yes
  35. Forced                                   : No

  36. Audio
  37. ID                                       : 2
  38. Format                                   : MLP FBA
  39. Format/Info                              : Meridian Lossless Packing FBA
  40. Commercial name                          : Dolby TrueHD
  41. Codec ID                                 : A_TRUEHD
  42. Duration                                 : 1 h 47 min
  43. Bit rate mode                            : Variable
  44. Bit rate                                 : 2 749 kb/s
  45. Maximum bit rate                         : 4 470 kb/s
  46. Channel(s)                               : 6 channels
  47. Channel layout                           : L R C LFE Ls Rs
  48. Sampling rate                            : 96.0 kHz
  49. Frame rate                               : 1 200.000 FPS (80 SPF)
  50. Compression mode                         : Lossless
  51. Stream size                              : 2.06 GiB (35%)
  52. Default                                  : Yes
  53. Forced                                   : No

  54. Text #1
  55. ID                                       : 3
  56. Format                                   : PGS
  57. Muxing mode                              : zlib
  58. Codec ID                                 : S_HDMV/PGS
  59. Codec ID/Info                            : Picture based subtitle format used on BDs/HD-DVDs
  60. Duration                                 : 1 h 46 min
  61. Bit rate                                 : 28.3 kb/s
  62. Count of elements                        : 2671
  63. Stream size                              : 21.6 MiB (0%)
  64. Language                                 : Chinese
  65. Default                                  : Yes
  66. Forced                                   : No

  67. Text #2
  68. ID                                       : 4
  69. Format                                   : PGS
  70. Muxing mode                              : zlib
  71. Codec ID                                 : S_HDMV/PGS
  72. Codec ID/Info                            : Picture based subtitle format used on BDs/HD-DVDs
  73. Duration                                 : 1 h 46 min
  74. Bit rate                                 : 33.0 kb/s
  75. Count of elements                        : 2667
  76. Stream size                              : 25.1 MiB (0%)
  77. Language                                 : English
  78. Default                                  : No
  79. Forced                                   : No

  80. Menu
  81. 00:00:00.000                             : en:绗?01 绔?
  82. 00:05:52.000                             : en:绗?02 绔?
  83. 00:10:17.667                             : en:绗?03 绔?
  84. 00:17:13.417                             : en:绗?04 绔?
  85. 00:20:48.750                             : en:绗?05 绔?
  86. 00:24:50.625                             : en:绗?06 绔?
  87. 00:30:10.583                             : en:绗?07 绔?
  88. 00:36:12.583                             : en:绗?08 绔?
  89. 00:41:51.833                             : en:绗?09 绔?
  90. 00:45:19.667                             : en:绗?10 绔?
  91. 00:52:38.208                             : en:绗?11 绔?
  92. 00:59:47.583                             : en:绗?12 绔?
  93. 01:04:58.125                             : en:绗?13 绔?
  94. 01:09:15.792                             : en:绗?14 绔?
  95. 01:12:56.792                             : en:绗?15 绔?
  96. 01:16:01.833                             : en:绗?16 绔?
  97. 01:22:41.875                             : en:绗?17 绔?
  98. 01:25:52.125                             : en:绗?18 绔?
  99. 01:33:14.292                             : en:绗?19 绔?
  100. 01:40:09.833                             : en:绗?20 绔?




下载地址:

Miss.and.Mrs.Cops.2019.BluRay.1080p.TrueHD5.1.x265.10bit-DreamHD.torrent

BT9527电影天堂 1、BT9527电影天堂提供的BT文件均来源于互联网抓取,只供网友学习交流、技术提升使用。
2、我们遵守BitTorrent点对点协议原则,任何版权问题请联系原资源发布商,我们不处理任何版权纠纷,谢谢!如有争议请联系邮箱:BT9527#hotmail.com(#换成@)
3、如果您发现某页面或地址有错误,请联系站长邮箱BT9527#hotmail.com(#换成@),我们会尽快处理。您的热心是对BT9527电影天堂最大的支持。
4、本站建议去正规影院观看电影以支持电影行业发展。
最新回复 (0)

你可以在 登录 or 注册 后,对此帖发表评论!

返回