魔女2[简繁英字幕].The.Witch.Part.2.The.Other.One.2022.1080p.DSNP.WEB-DL.DDP5.1.H.264-DreamHD 6.66GB

版主小s 9月前 629

✔资源类型:WEB-1080P   ✔电影年份:2022   ✔电影地区:韩国   ✔电影分类:动作

◎标  题 魔女2
◎译  名 魔女二部曲:另一个她(台) / The Witch: Part 2 / The Witch: Part 2. The Other One
◎片  名 마녀 Part2. The Other One
◎年  代 2022
◎产  地 韩国
◎类  别 动作 / 悬疑
◎语  言 韩语 / 英语 / 汉语普通话
◎上映日期 2022-06-15(韩国)
◎IMDb评分 6.2/10 (3339人评价)
◎IMDb链接 https://www.imdb.com/title/tt13721828/
◎豆瓣评分 6.1/10 (38122人评价)
◎豆瓣链接 https://movie.douban.com/subject/34832354/
◎片  长 137分钟
◎导  演 朴勋政 Hoon-jung Park
◎编  剧 朴勋政 Hoon-jung Park
◎演  员 申诗雅 Shin Si-ah
       朴恩斌 Eun-Bin Park
       徐恩秀 Eun-su Seo
       晋久 Goo Jin
       成侑彬 Yoo-bin Sung
       赵敏修 Min-su Jo
       车顺裴 Cha Soon-bae
       贾斯汀·约翰·哈维 Justin John Harvey
       边书允 Seo-yoon Byeon
       蔡元彬 Won-bin Chae
       徐怡拉 Seo Yi Ra
       郑拉尔 Lael Jung
       金基海 Kim Ki Hae
       郑雨琳 Woo-rim Jung
       李钟硕 Jong-suk Lee
       金多美 Da-mi Kim
       朴勋政 Hoon-jung Park
       李圣贤 Mowg
       金英浩 Young-Ho Kim
       赵相庆 Sang-gyeong Jo

◎简  介
  影片讲述了一名少女在某个巨型秘密实验室里醒来,她逃出实验室,偶然遇到努力从犯罪组织那里守护自己的家的庆熙。闯入庆熙家里的犯罪组织和少女冲突后,少女以压倒性的实力打败了他们。这期间,秘密实验室一直在追踪少女,这名神秘的少女到底是谁?
  1. ##### MediaInfo ######
  2. General
  3. Unique ID                                : 12547591439235472551408884663435412836 (0x97094057523EC9FFA32896B80684564)
  4. Complete name                            : The.Witch.Part.2.The.Other.One.2022.1080p.DSNP.WEB-DL.DDP5.1.H.264-DreamHD.mkv
  5. Format                                   : Matroska
  6. Format version                           : Version 4
  7. File size                                : 6.66 GiB
  8. Duration                                 : 2 h 17 min
  9. Overall bit rate mode                    : Variable
  10. Overall bit rate                         : 6 941 kb/s
  11. Encoded date                             : UTC 2022-12-20 10:27:17
  12. Writing application                      : mkvmerge v71.1.0 ('Fortitude') 64-bit
  13. Writing library                          : libebml v1.4.4 + libmatroska v1.7.1

  14. Video
  15. ID                                       : 1
  16. Format                                   : AVC
  17. Format/Info                              : Advanced Video Codec
  18. Format profile                           : High@L4
  19. Format settings                          : CABAC / 4 Ref Frames
  20. Format settings, CABAC                   : Yes
  21. Format settings, Reference frames        : 4 frames
  22. Codec ID                                 : V_MPEG4/ISO/AVC
  23. Duration                                 : 2 h 17 min
  24. Bit rate mode                            : Variable
  25. Bit rate                                 : 6 682 kb/s
  26. Maximum bit rate                         : 12.7 Mb/s
  27. Width                                    : 1 920 pixels
  28. Height                                   : 1 080 pixels
  29. Display aspect ratio                     : 16:9
  30. Frame rate mode                          : Constant
  31. Frame rate                               : 24.000 FPS
  32. Color space                              : YUV
  33. Chroma subsampling                       : 4:2:0
  34. Bit depth                                : 8 bits
  35. Scan type                                : Progressive
  36. Bits/(Pixel*Frame)                       : 0.134
  37. Stream size                              : 6.41 GiB (96%)
  38. Default                                  : Yes
  39. Forced                                   : No
  40. Color range                              : Limited
  41. Color primaries                          : BT.709
  42. Transfer characteristics                 : BT.709
  43. Matrix coefficients                      : BT.709

  44. Audio
  45. ID                                       : 2
  46. Format                                   : E-AC-3
  47. Format/Info                              : Enhanced AC-3
  48. Commercial name                          : Dolby Digital Plus
  49. Codec ID                                 : A_EAC3
  50. Duration                                 : 2 h 17 min
  51. Bit rate mode                            : Constant
  52. Bit rate                                 : 256 kb/s
  53. Channel(s)                               : 6 channels
  54. Channel layout                           : L R C LFE Ls Rs
  55. Sampling rate                            : 48.0 kHz
  56. Frame rate                               : 31.250 FPS (1536 SPF)
  57. Compression mode                         : Lossy
  58. Stream size                              : 251 MiB (4%)
  59. Title                                    : Korean
  60. Language                                 : Korean
  61. Service kind                             : Complete Main
  62. Default                                  : Yes
  63. Forced                                   : No

  64. Text #1
  65. ID                                       : 3
  66. Format                                   : UTF-8
  67. Codec ID                                 : S_TEXT/UTF8
  68. Codec ID/Info                            : UTF-8 Plain Text
  69. Duration                                 : 2 h 17 min
  70. Bit rate                                 : 28 b/s
  71. Count of elements                        : 1225
  72. Stream size                              : 28.8 KiB (0%)
  73. Title                                    : Chinese Simplified
  74. Language                                 : Chinese
  75. Default                                  : Yes
  76. Forced                                   : No

  77. Text #2
  78. ID                                       : 4
  79. Format                                   : UTF-8
  80. Codec ID                                 : S_TEXT/UTF8
  81. Codec ID/Info                            : UTF-8 Plain Text
  82. Duration                                 : 2 h 17 min
  83. Bit rate                                 : 28 b/s
  84. Count of elements                        : 1225
  85. Stream size                              : 28.8 KiB (0%)
  86. Title                                    : Chinese Traditional
  87. Language                                 : Chinese
  88. Default                                  : Yes
  89. Forced                                   : No

  90. Text #3
  91. ID                                       : 5
  92. Format                                   : UTF-8
  93. Codec ID                                 : S_TEXT/UTF8
  94. Codec ID/Info                            : UTF-8 Plain Text
  95. Duration                                 : 2 h 17 min
  96. Bit rate                                 : 24 b/s
  97. Count of elements                        : 1037
  98. Stream size                              : 24.9 KiB (0%)
  99. Title                                    : English
  100. Language                                 : English
  101. Default                                  : Yes
  102. Forced                                   : No




下载地址:

The.Witch.Part.2.The.Other.One.2022.1080p.DSNP.WEB-DL.DDP5.1.H.264-DreamHD.torrent

BT9527电影天堂 1、BT9527电影天堂提供的BT文件均来源于互联网抓取,只供网友学习交流、技术提升使用。
2、我们遵守BitTorrent点对点协议原则,任何版权问题请联系原资源发布商,我们不处理任何版权纠纷,谢谢!如有争议请联系邮箱:BT9527#hotmail.com(#换成@)
3、如果您发现某页面或地址有错误,请联系站长邮箱BT9527#hotmail.com(#换成@),我们会尽快处理。您的热心是对BT9527电影天堂最大的支持。
4、本站建议去正规影院观看电影以支持电影行业发展。
最新回复 (0)

你可以在 登录 or 注册 后,对此帖发表评论!

返回