明日赴死[中文字幕].She.Dies.Tomorrow.2020.BluRay.1080p.DTS-HDMA.5.1.x265.10bit-DreamHD 5.20GB

版主小s 9月前 355

✔资源类型:暂未分类   ✔电影年份:2020   ✔电影地区:欧美   ✔电影分类:剧情

◎标  题 明日赴死
◎译  名 她明天就死了 / 明天她死
◎片  名 She Dies Tomorrow
◎年  代 2020
◎产  地 美国
◎类  别 剧情 / 喜剧 / 惊悚
◎语  言 英语
◎上映日期 2020-07-31(美国)
◎IMDb评分 5.1/10 (6503人评价)
◎IMDb链接 https://www.imdb.com/title/tt11614912/
◎豆瓣评分 4.1/10 (433人评价)
◎豆瓣链接 https://movie.douban.com/subject/34960048/
◎片  长 84分钟
◎导  演 艾米·西米茨 Amy Seimetz
◎编  剧 艾米·西米茨 Amy Seimetz
◎演  员 奥利维亚·泰勒·达德利 Olivia Taylor Dudley
       乔什·卢卡斯 Josh Lucas
       米歇尔·罗德里格兹 Michelle Rodriguez
       简·亚当斯 Jane Adams
       克里斯·梅西纳 Chris Messina
       凯蒂·阿赛尔顿 Katie Aselton
       凯特·林恩·希尔 Kate Lyn Sheil
       肯塔克·奥德利 Kentucker Audley
       滕德·艾德比佩 Tunde Adebimpe
       詹妮弗·金 Jennifer Kim
       杰伊·凯泰尔 Jay Keitel
       Ariel Vida Ariel Vida

◎简  介
  艾米确信自己明天就要死,当她将死亡的幻觉传递给周围的人时,立刻开始失去了控制。
  1. ##### MediaInfo ######
  2. General
  3. Unique ID                                : 296725950077965789061835437326547799307 (0xDF3B56D94C0ED9F285EADCA5ABEFCD0B)
  4. Complete name                            : She.Dies.Tomorrow.2020.BluRay.1080p.DTS-HDMA.5.1.x265.10bit-DreamHD.mkv
  5. Format                                   : Matroska
  6. Format version                           : Version 4
  7. File size                                : 5.20 GiB
  8. Duration                                 : 1 h 24 min
  9. Overall bit rate mode                    : Variable
  10. Overall bit rate                         : 8 776 kb/s
  11. Encoded date                             : UTC 2021-07-17 19:22:27
  12. Writing application                      : mkvmerge v32.0.0 ('Astral Progressions') 64-bit
  13. Writing library                          : libebml v1.3.7 + libmatroska v1.5.0

  14. Video
  15. ID                                       : 1
  16. Format                                   : HEVC
  17. Format/Info                              : High Efficiency Video Coding
  18. Format profile                           : Main 10@L5.1@High
  19. Codec ID                                 : V_MPEGH/ISO/HEVC
  20. Duration                                 : 1 h 24 min
  21. Bit rate                                 : 6 995 kb/s
  22. Width                                    : 1 920 pixels
  23. Height                                   : 1 080 pixels
  24. Display aspect ratio                     : 16:9
  25. Frame rate mode                          : Constant
  26. Frame rate                               : 23.976 (24000/1001) FPS
  27. Original frame rate                      : 23.976 (23976/1000) FPS
  28. Color space                              : YUV
  29. Chroma subsampling                       : 4:2:0
  30. Bit depth                                : 10 bits
  31. Bits/(Pixel*Frame)                       : 0.141
  32. Stream size                              : 4.15 GiB (80%)
  33. Writing library                          : x265 3.4+35-772bb4c84:[Windows][MSVC 1928][64 bit] 10bit
  34. Encoding settings                        : cpuid=1111039 / frame-threads=4 / numa-pools=16 / wpp / no-pmode / no-pme / no-psnr / no-ssim / log-level=2 / input-csp=1 / input-res=1920x1080 / interlace=0 / total-frames=0 / level-idc=51 / high-tier=1 / uhd-bd=0 / ref=6 / no-allow-non-conformance / repeat-headers / annexb / no-aud / no-hrd / info / hash=0 / no-temporal-layers / no-open-gop / min-keyint=23 / keyint=250 / gop-lookahead=0 / bframes=8 / b-adapt=2 / b-pyramid / bframe-bias=0 / rc-lookahead=24 / lookahead-slices=6 / scenecut=40 / hist-scenecut=0 / radl=0 / no-splice / no-intra-refresh / ctu=64 / min-cu-size=8 / no-rect / no-amp / max-tu-size=32 / tu-inter-depth=1 / tu-intra-depth=1 / limit-tu=0 / rdoq-level=0 / dynamic-rd=0.00 / no-ssim-rd / signhide / no-tskip / nr-intra=0 / nr-inter=0 / no-constrained-intra / no-strong-intra-smoothing / max-merge=3 / limit-refs=1 / no-limit-modes / me=2 / subme=7 / merange=48 / temporal-mvp / no-frame-dup / no-hme / weightp / weightb / no-analyze-src-pics / deblock=0:0 / sao / no-sao-non-deblock / rd=4 / selective-sao=4 / early-skip / rskip / no-fast-intra / no-tskip-fast / no-cu-lossless / b-intra / no-splitrd-skip / rdpenalty=0 / psy-rd=2.00 / psy-rdoq=0.00 / no-rd-refine / no-lossless / cbqpoffs=0 / crqpoffs=0 / rc=crf / crf=18.0 / qcomp=0.60 / qpstep=4 / stats-write=0 / stats-read=0 / vbv-maxrate=160000 / vbv-bufsize=160000 / vbv-init=0.9 / min-vbv-fullness=50.0 / max-vbv-fullness=80.0 / crf-max=0.0 / crf-min=0.0 / ipratio=1.40 / pbratio=1.30 / aq-mode=3 / aq-strength=1.00 / cutree / zone-count=0 / no-strict-cbr / qg-size=32 / no-rc-grain / qpmax=69 / qpmin=0 / no-const-vbv / sar=0 / overscan=0 / videoformat=5 / range=0 / colorprim=2 / transfer=2 / colormatrix=2 / chromaloc=0 / display-window=0 / cll=0,0 / min-luma=0 / max-luma=1023 / log2-max-poc-lsb=8 / vui-timing-info / vui-hrd-info / slices=1 / no-opt-qp-pps / no-opt-ref-list-length-pps / no-multi-pass-opt-rps / scenecut-bias=0.05 / hist-threshold=0.03 / no-opt-cu-delta-qp / aq-motion / no-hdr10 / no-hdr10-opt / no-dhdr10-opt / no-idr-recovery-sei / analysis-reuse-level=0 / analysis-save-reuse-level=0 / analysis-load-reuse-level=0 / scale-factor=0 / refine-intra=0 / refine-inter=0 / refine-mv=1 / refine-ctu-distortion=0 / no-limit-sao / ctu-info=0 / no-lowpass-dct / refine-analysis-type=0 / copy-pic=1 / max-ausize-factor=1.0 / no-dynamic-refine / no-single-sei / no-hevc-aq / no-svt / no-field / qp-adaptation-range=1.00 / scenecut-aware-qp=0conformance-window-offsets / right=0 / bottom=0 / decoder-max-rate=0 / no-vbv-live-multi-pass
  35. Language                                 : English
  36. Default                                  : Yes
  37. Forced                                   : No

  38. Audio
  39. ID                                       : 2
  40. Format                                   : DTS XLL
  41. Format/Info                              : Digital Theater Systems
  42. Commercial name                          : DTS-HD Master Audio
  43. Codec ID                                 : A_DTS
  44. Duration                                 : 1 h 24 min
  45. Bit rate mode                            : Variable
  46. Bit rate                                 : 1 746 kb/s
  47. Channel(s)                               : 6 channels
  48. Channel layout                           : C L R Ls Rs LFE
  49. Sampling rate                            : 48.0 kHz
  50. Frame rate                               : 93.750 FPS (512 SPF)
  51. Bit depth                                : 16 bits
  52. Compression mode                         : Lossless
  53. Stream size                              : 1.03 GiB (20%)
  54. Language                                 : English
  55. Default                                  : Yes
  56. Forced                                   : No

  57. Text #1
  58. ID                                       : 3
  59. Format                                   : PGS
  60. Muxing mode                              : zlib
  61. Codec ID                                 : S_HDMV/PGS
  62. Codec ID/Info                            : Picture based subtitle format used on BDs/HD-DVDs
  63. Duration                                 : 1 h 22 min
  64. Bit rate                                 : 23.1 kb/s
  65. Count of elements                        : 1146
  66. Stream size                              : 13.7 MiB (0%)
  67. Language                                 : Chinese
  68. Default                                  : Yes
  69. Forced                                   : No

  70. Text #2
  71. ID                                       : 4
  72. Format                                   : PGS
  73. Muxing mode                              : zlib
  74. Codec ID                                 : S_HDMV/PGS
  75. Codec ID/Info                            : Picture based subtitle format used on BDs/HD-DVDs
  76. Duration                                 : 1 h 22 min
  77. Bit rate                                 : 44.0 kb/s
  78. Count of elements                        : 1147
  79. Stream size                              : 26.1 MiB (0%)
  80. Language                                 : Chinese
  81. Default                                  : No
  82. Forced                                   : No

  83. Menu
  84. 00:00:00.000                             : en:Chapter 01
  85. 00:07:02.505                             : en:Chapter 02
  86. 00:13:04.742                             : en:Chapter 03
  87. 00:20:50.833                             : en:Chapter 04
  88. 00:28:10.689                             : en:Chapter 05
  89. 00:33:44.773                             : en:Chapter 06
  90. 00:40:34.265                             : en:Chapter 07
  91. 00:47:17.585                             : en:Chapter 08
  92. 00:56:25.132                             : en:Chapter 09
  93. 01:02:32.999                             : en:Chapter 10
  94. 01:12:28.970                             : en:Chapter 11
  95. 01:20:32.286                             : en:Chapter 12




下载地址:

She.Dies.Tomorrow.2020.BluRay.1080p.DTS-HDMA.5.1.x265.10bit-DreamHD.torrent

BT9527电影天堂 1、BT9527电影天堂提供的BT文件均来源于互联网抓取,只供网友学习交流、技术提升使用。
2、我们遵守BitTorrent点对点协议原则,任何版权问题请联系原资源发布商,我们不处理任何版权纠纷,谢谢!如有争议请联系邮箱:BT9527#hotmail.com(#换成@)
3、如果您发现某页面或地址有错误,请联系站长邮箱BT9527#hotmail.com(#换成@),我们会尽快处理。您的热心是对BT9527电影天堂最大的支持。
4、本站建议去正规影院观看电影以支持电影行业发展。
最新回复 (0)

你可以在 登录 or 注册 后,对此帖发表评论!

返回