救火奶爸[中文字幕].Playing.with.Fire.2019.BluRay.1080p.DTS-HDMA5.1.x265.10bit-DreamHD 6.30GB

版主小s 9月前 321

✔资源类型:暂未分类   ✔电影年份:2019   ✔电影地区:欧美   ✔电影分类:喜剧

◎标  题 救火奶爸
◎译  名 玩火 / 烈火湊仔公(港)
◎片  名 Playing with Fire
◎年  代 2019
◎产  地 美国
◎类  别 喜剧 / 家庭
◎语  言 英语
◎上映日期 2019-11-08(美国)
◎IMDb评分 5.1/10 (15006人评价)
◎IMDb链接 https://www.imdb.com/title/tt9134216/
◎豆瓣评分 5.6/10 (2019人评价)
◎豆瓣链接 https://movie.douban.com/subject/30428030/
◎片  长 96分钟
◎导  演 安迪·菲克曼 Andy Fickman
◎编  剧 马特·利伯曼 Matt Lieberman
       丹·埃文 Dan Ewen
◎演  员 约翰·塞纳 John Cena
       布里安娜·希德布兰德 Brianna Hildebrand
       朱迪·格雷尔 Judy Greer
       科甘-迈克尔·凯 Keegan-Michael Key
       约翰·雷吉扎莫 John Leguizamo
       克里斯蒂安·康佛瑞 Christian Convery
       芬利·罗斯·斯莱特 Finley Rose Slater
       丹尼斯·海斯伯特 Dennis Haysbert
       库尔特·隆 Kurt Long
       泰勒·梅恩 Tyler Mane
       贾思敏·维嘉 Jasmine Vega
       琳达·博伊德 Lynda Boyd
       克莉丝汀·威尔逊 Kristine Wilson

◎简  介
  讲述了“赵喜娜”率队的消防员们在一次救火行动后竟遭遇人生最大挑战:要照顾从火场救出的三位萌娃,直到他们被爸妈接走。队员们“被迫营业”变身奶爸,人小鬼大的姐弟三人组彻底颠覆了消防队的日常生活,状况百出笑料不断,而烈火英雄硬核带娃竟也萌出天际!影片将于2019年11月8日北美上映。
  1. ##### MediaInfo ######
  2. General
  3. Unique ID                                : 275688740549250161948675228790453016489 (0xCF67B856DCDD77E0EF512498880197A9)
  4. Complete name                            : Playing.with.Fire.2019.BluRay.1080p.DTS-HDMA5.1.x265.10bit-DreamHD.mkv
  5. Format                                   : Matroska
  6. Format version                           : Version 4
  7. File size                                : 6.30 GiB
  8. Duration                                 : 1 h 35 min
  9. Overall bit rate mode                    : Variable
  10. Overall bit rate                         : 9 391 kb/s
  11. Encoded date                             : UTC 2020-01-24 00:31:18
  12. Writing application                      : mkvmerge v41.0.0 ('Smarra') 64-bit
  13. Writing library                          : libebml v1.3.9 + libmatroska v1.5.2

  14. Video
  15. ID                                       : 1
  16. Format                                   : HEVC
  17. Format/Info                              : High Efficiency Video Coding
  18. Format profile                           : Main 10@L5@Main
  19. Codec ID                                 : V_MPEGH/ISO/HEVC
  20. Duration                                 : 1 h 35 min
  21. Bit rate                                 : 5 764 kb/s
  22. Width                                    : 1 920 pixels
  23. Height                                   : 1 080 pixels
  24. Display aspect ratio                     : 16:9
  25. Frame rate mode                          : Constant
  26. Frame rate                               : 23.976 (24000/1001) FPS
  27. Original frame rate                      : 23.976 (23976/1000) FPS
  28. Color space                              : YUV
  29. Chroma subsampling                       : 4:2:0
  30. Bit depth                                : 10 bits
  31. Bits/(Pixel*Frame)                       : 0.116
  32. Stream size                              : 3.87 GiB (61%)
  33. Writing library                          : x265 3.2+7-gb291a1c95+26:[Windows][MSVC 1916][64 bit] Yuuki 10bit
  34. Encoding settings                        : rc=crf / crf=16.0000 / qcomp=0.60 / qpstep=4 / stats-write=0 / stats-read=0 / no-lossless / no-cu-lossless / aq-mode=3 / aq-strength=1.00 / cbqpoffs=0 / crqpoffs=0 / ipratio=1.40 / pbratio=1.30 / psy-rd=2.00 / psy-rdoq=0.00 / deblock=0:0 / ref=6 / limit-refs=1 / no-limit-modes / bframes=8 / b-adapt=2 / bframe-bias=0 / b-pyramid / b-intra / weightp / weightb / min-keyint=23 / max-keyint=250 / rc-lookahead=24 / gop-lookahead=0 / scenecut=40 / radl=0 / max-cu-size=64 / min-cu-size=8 / me=2 / subme=7 / merange=48 / rdoq-level=0 / rd=4 / rdpenalty=0 / dynamic-rd=0.00 / no-rd-refine / ----- / cutree / sao / no-rect / no-amp / no-open-gop / wpp / no-pmode / no-pme / no-psnr / no-ssim / nr-intra=0 / nr-inter=0 / no-constrained-intra / no-strong-intra-smoothing / max-tu-size=32 / tu-inter-depth=1 / tu-intra-depth=1 / limit-tu=0 / qg-size=32 / qpmax=69 / qpmin=0 / ----- / cpuid=1111039 / frame-threads=5 / numa-pools=36,36 / log-level=2 / input-csp=1 / input-res=1920x1080 / interlace=0 / level-idc=0 / high-tier=1 / uhd-bd=0 / no-allow-non-conformance / repeat-headers / no-aud / no-hrd / info / hash=0 / no-temporal-layers / lookahead-slices=6 / no-splice / no-intra-refresh / no-ssim-rd / signhide / no-tskip / max-merge=3 / temporal-mvp / no-hme / no-analyze-src-pics / no-sao-non-deblock / selective-sao=4 / early-skip / rskip / no-fast-intra / no-tskip-fast / no-splitrd-skip / zone-count=0 / no-strict-cbr / no-rc-grain / no-const-vbv / sar=0 / overscan=0 / videoformat=5 / range=0 / colorprim=2 / transfer=2 / colormatrix=2 / chromaloc=0 / display-window=0 / cll=0,0 / min-luma=0 / max-luma=1023 / log2-max-poc-lsb=8 / vui-timing-info / vui-hrd-info / slices=1 / no-opt-qp-pps / no-opt-ref-list-length-pps / no-multi-pass-opt-rps / scenecut-bias=0.05 / no-opt-cu-delta-qp / aq-motion / no-hdr / no-hdr-opt / no-dhdr10-opt / no-idr-recovery-sei / analysis-reuse-level=5 / scale-factor=0 / refine-intra=0 / refine-inter=0 / refine-mv=1 / refine-ctu-distortion=0 / no-limit-sao / ctu-info=0 / no-lowpass-dct / refine-analysis-type=0 / copy-pic=1 / max-ausize-factor=1.0 / no-dynamic-refine / no-single-sei / no-hevc-aq / no-svt / no-field / qp-adaptation-range=1.00
  35. Default                                  : Yes
  36. Forced                                   : No

  37. Audio
  38. ID                                       : 2
  39. Format                                   : DTS XLL
  40. Format/Info                              : Digital Theater Systems
  41. Commercial name                          : DTS-HD Master Audio
  42. Codec ID                                 : A_DTS
  43. Duration                                 : 1 h 35 min
  44. Bit rate mode                            : Variable
  45. Bit rate                                 : 3 593 kb/s
  46. Channel(s)                               : 6 channels
  47. Channel layout                           : C L R Ls Rs LFE
  48. Sampling rate                            : 48.0 kHz
  49. Frame rate                               : 93.750 FPS (512 SPF)
  50. Bit depth                                : 24 bits
  51. Compression mode                         : Lossless
  52. Stream size                              : 2.41 GiB (38%)
  53. Default                                  : Yes
  54. Forced                                   : No

  55. Text #1
  56. ID                                       : 3
  57. Format                                   : PGS
  58. Muxing mode                              : zlib
  59. Codec ID                                 : S_HDMV/PGS
  60. Codec ID/Info                            : Picture based subtitle format used on BDs/HD-DVDs
  61. Duration                                 : 1 h 35 min
  62. Bit rate                                 : 37.6 kb/s
  63. Count of elements                        : 3088
  64. Stream size                              : 25.7 MiB (0%)
  65. Language                                 : Chinese
  66. Default                                  : Yes
  67. Forced                                   : No

  68. Text #2
  69. ID                                       : 4
  70. Format                                   : PGS
  71. Muxing mode                              : zlib
  72. Codec ID                                 : S_HDMV/PGS
  73. Codec ID/Info                            : Picture based subtitle format used on BDs/HD-DVDs
  74. Duration                                 : 1 h 30 min
  75. Bit rate                                 : 45.4 kb/s
  76. Count of elements                        : 3042
  77. Stream size                              : 29.4 MiB (0%)
  78. Language                                 : English
  79. Default                                  : No
  80. Forced                                   : No

  81. Menu
  82. 00:00:00.000                             : en:绗?01 绔?
  83. 00:04:34.483                             : en:绗?02 绔?
  84. 00:11:38.823                             : en:绗?03 绔?
  85. 00:18:42.246                             : en:绗?04 绔?
  86. 00:23:04.675                             : en:绗?05 绔?
  87. 00:28:04.224                             : en:绗?06 绔?
  88. 00:32:23.984                             : en:绗?07 绔?
  89. 00:41:30.571                             : en:绗?08 绔?
  90. 00:48:22.399                             : en:绗?09 绔?
  91. 00:52:17.760                             : en:绗?10 绔?
  92. 00:57:26.693                             : en:绗?11 绔?
  93. 01:02:15.231                             : en:绗?12 绔?
  94. 01:10:37.525                             : en:绗?13 绔?
  95. 01:16:56.237                             : en:绗?14 绔?
  96. 01:23:43.852                             : en:绗?15 绔?
  97. 01:29:19.271                             : en:绗?16 绔?




下载地址:

Playing.with.Fire.2019.BluRay.1080p.DTS-HDMA5.1.x265.10bit-DreamHD.torrent

BT9527电影天堂 1、BT9527电影天堂提供的BT文件均来源于互联网抓取,只供网友学习交流、技术提升使用。
2、我们遵守BitTorrent点对点协议原则,任何版权问题请联系原资源发布商,我们不处理任何版权纠纷,谢谢!如有争议请联系邮箱:BT9527#hotmail.com(#换成@)
3、如果您发现某页面或地址有错误,请联系站长邮箱BT9527#hotmail.com(#换成@),我们会尽快处理。您的热心是对BT9527电影天堂最大的支持。
4、本站建议去正规影院观看电影以支持电影行业发展。
最新回复 (0)

你可以在 登录 or 注册 后,对此帖发表评论!

返回