黑豹2[中文字幕].Black.Panther.Wakanda.Forever.2022.2160p.WEB-DL.DDP.5.1.Atmos.HDR10/.H.265-DreamHD 27.86GB

版主小s 1月前 218

✔资源类型:4K   ✔电影年份:2022   ✔电影地区:欧美   ✔电影分类:剧情

◎标  题 黑豹2
◎译  名 黑豹:瓦坎达万岁 / 黑豹2:瓦干达万岁(港 / 台) / Black Panther 2 / Black Panther II
◎片  名 Black Panther: Wakanda Forever
◎年  代 2022
◎产  地 美国
◎类  别 剧情 / 动作 / 科幻 / 冒险
◎语  言 英语
◎上映日期 2023-02-07(中国大陆) / 2022-11-09(中国台湾) / 2022-11-11(美国)
◎IMDb评分 7.2/10 (139221人评价)
◎IMDb链接 https://www.imdb.com/title/tt9114286/
◎豆瓣评分 6.3/10 (14376人评价)
◎豆瓣链接 https://movie.douban.com/subject/30167997/
◎片  长 161分钟
◎导  演 瑞恩·库格勒 Ryan Coogler
◎编  剧 瑞恩·库格勒 Ryan Coogler
       乔·罗伯特·科尔 Joe Robert Cole
       斯坦·李 Stan Lee
◎演  员 利蒂希娅·赖特 Letitia Wright
       露皮塔·尼永奥 Lupita Nyong'o
       安吉拉·贝塞特 Angela Bassett
       丹娜·奎里拉 Danai Gurira
       温斯顿·杜克 Winston Duke
       马丁·弗瑞曼 Martin Freeman
       特诺切·韦尔塔 Tenoch Huerta
       理查德·希夫 Richard Schiff
       多米尼克·索恩 Dominique Thorne
       米凯拉·科尔 Michaela Coel
       弗洛伦丝·卡松巴 Florence Kasumba
       玛丽亚·梅塞德斯·科罗伊 María Mercedes Coroy
       伊萨赫·德·班克尔 Isaach De Bankolé
       施奎塔·詹姆斯 Shiquita James
       胡安·卡洛斯·坎图 Juan Carlos Cantu
       洁基伯明翰 Gigi Bermingham
       索佩·阿卢科 Sope Aluko
       小弗洛伊德·安东尼·约翰 Floyd Anthony Johns Jr.
       布伦特·莫雷尔·加斯金斯 Brent Moorer Gaskins
       拉希姆·赖利 Rahiem Riley
       乔丹·沃克·罗斯 Jordan Walker Ross
       Kamaru Usman Kamaru Usman
       梅布尔·卡德纳 Mabel Cadena
        Alex Livinalli

◎简  介
    在“黑豹”特查拉国王不幸去世后,苏睿(利蒂希娅·赖特 Letitia Wright 饰)、奥克耶(丹娜·奎里拉 Danai Gurira 饰)、拉玛达王太后(安吉拉·贝塞特 Angela Bassett 饰)、姆巴库(温斯顿·杜克 Winston Duke 饰)为了保护瓦坎达而战。瓦坎达人努力迎接他们的新篇章,他们必须在娜吉雅(露皮塔·尼永奥 Lupita Nyong'o 饰)和罗斯探员(马丁·弗瑞曼 Martin Freeman 饰)的帮助下团结起来,为瓦坎达王国开辟新道路。
  1. ##### MediaInfo ######
  2. General
  3. Unique ID                                : 153683096819455819016656562880850338494 (0x739E49ADFC93B93CAFE0990134EAA2BE)
  4. Complete name                            : Black.Panther.Wakanda.Forever.2022.2160p.WEB-DL.DDP.5.1.Atmos.HDR10+.H.265-DreamHD.mkv
  5. Format                                   : Matroska
  6. Format version                           : Version 4
  7. File size                                : 27.9 GiB
  8. Duration                                 : 2 h 41 min
  9. Overall bit rate                         : 24.7 Mb/s
  10. Encoded date                             : UTC 2023-02-01 01:54:56
  11. Writing application                      : mkvmerge v71.1.0 ('Fortitude') 64-bit
  12. Writing library                          : libebml v1.4.4 + libmatroska v1.7.1

  13. Video
  14. ID                                       : 1
  15. Format                                   : HEVC
  16. Format/Info                              : High Efficiency Video Coding
  17. Format profile                           : Main 10@L5@High
  18. HDR format                               : SMPTE ST 2094 App 4, Version 1, HDR10+ Profile A compatible
  19. Codec ID                                 : V_MPEGH/ISO/HEVC
  20. Duration                                 : 2 h 41 min
  21. Bit rate                                 : 23.9 Mb/s
  22. Width                                    : 3 840 pixels
  23. Height                                   : 1 608 pixels
  24. Display aspect ratio                     : 2.40:1
  25. Frame rate mode                          : Constant
  26. Frame rate                               : 23.976 (23976/1000) FPS
  27. Color space                              : YUV
  28. Chroma subsampling                       : 4:2:0 (Type 2)
  29. Bit depth                                : 10 bits
  30. Bits/(Pixel*Frame)                       : 0.162
  31. Stream size                              : 27.0 GiB (97%)
  32. Language                                 : English
  33. Default                                  : Yes
  34. Forced                                   : No
  35. Color range                              : Limited
  36. Color primaries                          : BT.2020
  37. Transfer characteristics                 : PQ
  38. Matrix coefficients                      : BT.2020 non-constant
  39. Mastering display color primaries        : BT.2020
  40. Mastering display luminance              : min: 0.0050 cd/m2, max: 1000 cd/m2
  41. Maximum Content Light Level              : 1136 cd/m2
  42. Maximum Frame-Average Light Level        : 452 cd/m2

  43. Audio
  44. ID                                       : 2
  45. Format                                   : E-AC-3 JOC
  46. Format/Info                              : Enhanced AC-3 with Joint Object Coding
  47. Commercial name                          : Dolby Digital Plus with Dolby Atmos
  48. Codec ID                                 : A_EAC3
  49. Duration                                 : 2 h 41 min
  50. Bit rate mode                            : Constant
  51. Bit rate                                 : 768 kb/s
  52. Channel(s)                               : 6 channels
  53. Channel layout                           : L R C LFE Ls Rs
  54. Sampling rate                            : 48.0 kHz
  55. Frame rate                               : 31.250 FPS (1536 SPF)
  56. Compression mode                         : Lossy
  57. Stream size                              : 886 MiB (3%)
  58. Language                                 : English
  59. Service kind                             : Complete Main
  60. Default                                  : Yes
  61. Forced                                   : No
  62. Complexity index                         : 16
  63. Number of dynamic objects                : 15
  64. Bed channel count                        : 1 channel
  65. Bed channel configuration                : LFE

  66. Text #1
  67. ID                                       : 3
  68. Format                                   : UTF-8
  69. Codec ID                                 : S_TEXT/UTF8
  70. Codec ID/Info                            : UTF-8 Plain Text
  71. Duration                                 : 2 h 38 min
  72. Bit rate                                 : 58 b/s
  73. Count of elements                        : 2550
  74. Stream size                              : 68.1 KiB (0%)
  75. Title                                    : SDH
  76. Language                                 : English
  77. Default                                  : No
  78. Forced                                   : No

  79. Text #2
  80. ID                                       : 4
  81. Format                                   : UTF-8
  82. Codec ID                                 : S_TEXT/UTF8
  83. Codec ID/Info                            : UTF-8 Plain Text
  84. Duration                                 : 2 h 41 min
  85. Bit rate                                 : 33 b/s
  86. Count of elements                        : 1782
  87. Stream size                              : 39.3 KiB (0%)
  88. Title                                    : Traditional
  89. Language                                 : Chinese
  90. Default                                  : No
  91. Forced                                   : No

  92. Text #3
  93. ID                                       : 5
  94. Format                                   : UTF-8
  95. Codec ID                                 : S_TEXT/UTF8
  96. Codec ID/Info                            : UTF-8 Plain Text
  97. Duration                                 : 2 h 41 min
  98. Bit rate                                 : 34 b/s
  99. Count of elements                        : 1775
  100. Stream size                              : 40.3 KiB (0%)
  101. Title                                    : Traditional
  102. Language                                 : Chinese
  103. Default                                  : No
  104. Forced                                   : No

  105. Text #4
  106. ID                                       : 6
  107. Format                                   : UTF-8
  108. Codec ID                                 : S_TEXT/UTF8
  109. Codec ID/Info                            : UTF-8 Plain Text
  110. Duration                                 : 2 h 41 min
  111. Bit rate                                 : 64 b/s
  112. Count of elements                        : 1755
  113. Stream size                              : 76.2 KiB (0%)
  114. Language                                 : Bulgarian
  115. Default                                  : No
  116. Forced                                   : No

  117. Text #5
  118. ID                                       : 7
  119. Format                                   : UTF-8
  120. Codec ID                                 : S_TEXT/UTF8
  121. Codec ID/Info                            : UTF-8 Plain Text
  122. Duration                                 : 2 h 41 min
  123. Bit rate                                 : 40 b/s
  124. Count of elements                        : 1769
  125. Stream size                              : 48.0 KiB (0%)
  126. Language                                 : Czech
  127. Default                                  : No
  128. Forced                                   : No

  129. Text #6
  130. ID                                       : 8
  131. Format                                   : UTF-8
  132. Codec ID                                 : S_TEXT/UTF8
  133. Codec ID/Info                            : UTF-8 Plain Text
  134. Duration                                 : 2 h 41 min
  135. Bit rate                                 : 38 b/s
  136. Count of elements                        : 1158
  137. Stream size                              : 45.0 KiB (0%)
  138. Language                                 : Danish
  139. Default                                  : No
  140. Forced                                   : No

  141. Text #7
  142. ID                                       : 9
  143. Format                                   : UTF-8
  144. Codec ID                                 : S_TEXT/UTF8
  145. Codec ID/Info                            : UTF-8 Plain Text
  146. Duration                                 : 2 h 41 min
  147. Bit rate                                 : 74 b/s
  148. Count of elements                        : 1766
  149. Stream size                              : 87.7 KiB (0%)
  150. Language                                 : Greek
  151. Default                                  : No
  152. Forced                                   : No

  153. Text #8
  154. ID                                       : 10
  155. Format                                   : UTF-8
  156. Codec ID                                 : S_TEXT/UTF8
  157. Codec ID/Info                            : UTF-8 Plain Text
  158. Duration                                 : 2 h 41 min
  159. Bit rate                                 : 40 b/s
  160. Count of elements                        : 1733
  161. Stream size                              : 47.2 KiB (0%)
  162. Language                                 : Spanish
  163. Default                                  : No
  164. Forced                                   : No

  165. Text #9
  166. ID                                       : 11
  167. Format                                   : UTF-8
  168. Codec ID                                 : S_TEXT/UTF8
  169. Codec ID/Info                            : UTF-8 Plain Text
  170. Duration                                 : 2 h 41 min
  171. Bit rate                                 : 42 b/s
  172. Count of elements                        : 1761
  173. Stream size                              : 49.8 KiB (0%)
  174. Language                                 : Estonian
  175. Default                                  : No
  176. Forced                                   : No

  177. Text #10
  178. ID                                       : 12
  179. Format                                   : UTF-8
  180. Codec ID                                 : S_TEXT/UTF8
  181. Codec ID/Info                            : UTF-8 Plain Text
  182. Duration                                 : 2 h 41 min
  183. Bit rate                                 : 43 b/s
  184. Count of elements                        : 1759
  185. Stream size                              : 51.5 KiB (0%)
  186. Language                                 : Finnish
  187. Default                                  : No
  188. Forced                                   : No

  189. Text #11
  190. ID                                       : 13
  191. Format                                   : UTF-8
  192. Codec ID                                 : S_TEXT/UTF8
  193. Codec ID/Info                            : UTF-8 Plain Text
  194. Duration                                 : 2 h 41 min
  195. Bit rate                                 : 57 b/s
  196. Count of elements                        : 1774
  197. Stream size                              : 67.2 KiB (0%)
  198. Language                                 : Hebrew
  199. Default                                  : No
  200. Forced                                   : No

  201. Text #12
  202. ID                                       : 14
  203. Format                                   : UTF-8
  204. Codec ID                                 : S_TEXT/UTF8
  205. Codec ID/Info                            : UTF-8 Plain Text
  206. Duration                                 : 2 h 41 min
  207. Bit rate                                 : 40 b/s
  208. Count of elements                        : 1724
  209. Stream size                              : 47.6 KiB (0%)
  210. Language                                 : Croatian
  211. Default                                  : No
  212. Forced                                   : No

  213. Text #13
  214. ID                                       : 15
  215. Format                                   : UTF-8
  216. Codec ID                                 : S_TEXT/UTF8
  217. Codec ID/Info                            : UTF-8 Plain Text
  218. Duration                                 : 2 h 41 min
  219. Bit rate                                 : 40 b/s
  220. Count of elements                        : 1758
  221. Stream size                              : 47.7 KiB (0%)
  222. Language                                 : Hungarian
  223. Default                                  : No
  224. Forced                                   : No

  225. Text #14
  226. ID                                       : 16
  227. Format                                   : UTF-8
  228. Codec ID                                 : S_TEXT/UTF8
  229. Codec ID/Info                            : UTF-8 Plain Text
  230. Duration                                 : 2 h 41 min
  231. Bit rate                                 : 43 b/s
  232. Count of elements                        : 1760
  233. Stream size                              : 51.0 KiB (0%)
  234. Language                                 : Icelandic
  235. Default                                  : No
  236. Forced                                   : No

  237. Text #15
  238. ID                                       : 17
  239. Format                                   : UTF-8
  240. Codec ID                                 : S_TEXT/UTF8
  241. Codec ID/Info                            : UTF-8 Plain Text
  242. Duration                                 : 2 h 41 min
  243. Bit rate                                 : 38 b/s
  244. Count of elements                        : 1653
  245. Stream size                              : 44.9 KiB (0%)
  246. Title                                    : Japan
  247. Language                                 : Japanese
  248. Default                                  : No
  249. Forced                                   : No

  250. Text #16
  251. ID                                       : 18
  252. Format                                   : UTF-8
  253. Codec ID                                 : S_TEXT/UTF8
  254. Codec ID/Info                            : UTF-8 Plain Text
  255. Duration                                 : 2 h 41 min
  256. Bit rate                                 : 41 b/s
  257. Count of elements                        : 1773
  258. Stream size                              : 49.2 KiB (0%)
  259. Language                                 : Korean
  260. Default                                  : No
  261. Forced                                   : No

  262. Text #17
  263. ID                                       : 19
  264. Format                                   : UTF-8
  265. Codec ID                                 : S_TEXT/UTF8
  266. Codec ID/Info                            : UTF-8 Plain Text
  267. Duration                                 : 2 h 41 min
  268. Bit rate                                 : 39 b/s
  269. Count of elements                        : 1757
  270. Stream size                              : 46.2 KiB (0%)
  271. Language                                 : Lithuanian
  272. Default                                  : No
  273. Forced                                   : No

  274. Text #18
  275. ID                                       : 20
  276. Format                                   : UTF-8
  277. Codec ID                                 : S_TEXT/UTF8
  278. Codec ID/Info                            : UTF-8 Plain Text
  279. Duration                                 : 2 h 41 min
  280. Bit rate                                 : 44 b/s
  281. Count of elements                        : 1774
  282. Stream size                              : 52.8 KiB (0%)
  283. Language                                 : Latvian
  284. Default                                  : No
  285. Forced                                   : No

  286. Text #19
  287. ID                                       : 21
  288. Format                                   : UTF-8
  289. Codec ID                                 : S_TEXT/UTF8
  290. Codec ID/Info                            : UTF-8 Plain Text
  291. Duration                                 : 2 h 41 min
  292. Bit rate                                 : 42 b/s
  293. Count of elements                        : 1552
  294. Stream size                              : 50.4 KiB (0%)
  295. Language                                 : Dutch
  296. Default                                  : No
  297. Forced                                   : No

  298. Text #20
  299. ID                                       : 22
  300. Format                                   : UTF-8
  301. Codec ID                                 : S_TEXT/UTF8
  302. Codec ID/Info                            : UTF-8 Plain Text
  303. Duration                                 : 2 h 41 min
  304. Bit rate                                 : 39 b/s
  305. Count of elements                        : 1768
  306. Stream size                              : 46.8 KiB (0%)
  307. Language                                 : Norwegian
  308. Default                                  : No
  309. Forced                                   : No

  310. Text #21
  311. ID                                       : 23
  312. Format                                   : UTF-8
  313. Codec ID                                 : S_TEXT/UTF8
  314. Codec ID/Info                            : UTF-8 Plain Text
  315. Duration                                 : 2 h 41 min
  316. Bit rate                                 : 36 b/s
  317. Count of elements                        : 1768
  318. Stream size                              : 43.1 KiB (0%)
  319. Language                                 : Polish
  320. Default                                  : No
  321. Forced                                   : No

  322. Text #22
  323. ID                                       : 24
  324. Format                                   : UTF-8
  325. Codec ID                                 : S_TEXT/UTF8
  326. Codec ID/Info                            : UTF-8 Plain Text
  327. Duration                                 : 2 h 41 min
  328. Bit rate                                 : 42 b/s
  329. Count of elements                        : 1754
  330. Stream size                              : 50.2 KiB (0%)
  331. Language                                 : Portuguese
  332. Default                                  : No
  333. Forced                                   : No

  334. Text #23
  335. ID                                       : 25
  336. Format                                   : UTF-8
  337. Codec ID                                 : S_TEXT/UTF8
  338. Codec ID/Info                            : UTF-8 Plain Text
  339. Duration                                 : 2 h 41 min
  340. Bit rate                                 : 37 b/s
  341. Count of elements                        : 1765
  342. Stream size                              : 44.6 KiB (0%)
  343. Language                                 : Slovak
  344. Default                                  : No
  345. Forced                                   : No

  346. Text #24
  347. ID                                       : 26
  348. Format                                   : UTF-8
  349. Codec ID                                 : S_TEXT/UTF8
  350. Codec ID/Info                            : UTF-8 Plain Text
  351. Duration                                 : 2 h 41 min
  352. Bit rate                                 : 37 b/s
  353. Count of elements                        : 1422
  354. Stream size                              : 43.8 KiB (0%)
  355. Language                                 : Slovenian
  356. Default                                  : No
  357. Forced                                   : No

  358. Text #25
  359. ID                                       : 27
  360. Format                                   : UTF-8
  361. Codec ID                                 : S_TEXT/UTF8
  362. Codec ID/Info                            : UTF-8 Plain Text
  363. Duration                                 : 2 h 41 min
  364. Bit rate                                 : 39 b/s
  365. Count of elements                        : 1323
  366. Stream size                              : 46.6 KiB (0%)
  367. Language                                 : Swedish
  368. Default                                  : No
  369. Forced                                   : No

  370. Text #26
  371. ID                                       : 28
  372. Format                                   : UTF-8
  373. Codec ID                                 : S_TEXT/UTF8
  374. Codec ID/Info                            : UTF-8 Plain Text
  375. Duration                                 : 2 h 41 min
  376. Bit rate                                 : 43 b/s
  377. Count of elements                        : 1769
  378. Stream size                              : 51.7 KiB (0%)
  379. Language                                 : Turkish
  380. Default                                  : No
  381. Forced                                   : No

  382. Text #27
  383. ID                                       : 29
  384. Format                                   : UTF-8
  385. Codec ID                                 : S_TEXT/UTF8
  386. Codec ID/Info                            : UTF-8 Plain Text
  387. Duration                                 : 2 h 41 min
  388. Bit rate                                 : 67 b/s
  389. Count of elements                        : 1777
  390. Stream size                              : 79.4 KiB (0%)
  391. Language                                 : Ukrainian
  392. Default                                  : No
  393. Forced                                   : No

  394. Menu
  395. 00:00:00.000                             : en:Chapter 01
  396. 00:06:23.717                             : en:Chapter 02
  397. 00:11:47.582                             : en:Chapter 03
  398. 00:18:45.917                             : en:Chapter 04
  399. 00:23:16.688                             : en:Chapter 05
  400. 00:29:52.417                             : en:Chapter 06
  401. 00:33:12.951                             : en:Chapter 07
  402. 00:35:17.742                             : en:Chapter 08
  403. 00:39:54.185                             : en:Chapter 09
  404. 00:46:41.718                             : en:Chapter 10
  405. 00:53:09.314                             : en:Chapter 11
  406. 00:58:21.001                             : en:Chapter 12
  407. 01:02:33.169                             : en:Chapter 13
  408. 01:04:54.310                             : en:Chapter 14
  409. 01:12:35.438                             : en:Chapter 15
  410. 01:21:47.198                             : en:Chapter 16
  411. 01:28:29.351                             : en:Chapter 17
  412. 01:40:33.450                             : en:Chapter 18
  413. 01:44:45.201                             : en:Chapter 19
  414. 01:53:09.414                             : en:Chapter 20
  415. 01:58:03.583                             : en:Chapter 21
  416. 02:04:36.184                             : en:Chapter 22
  417. 02:10:13.688                             : en:Chapter 23
  418. 02:19:33.456                             : en:Chapter 24
  419. 02:24:00.890                             : en:Chapter 25
  420. 02:31:27.671                             : en:Chapter 26
  421. 02:33:54.317                             : en:Chapter 27




下载地址:

Black.Panther.Wakanda.Forever.2022.2160p.WEB-DL.DDP.5.1.Atmos.HDR10+.H.265-DreamHD.torrent

BT9527电影天堂 1、BT9527电影天堂提供的BT文件均来源于互联网抓取,只供网友学习交流、技术提升使用。
2、我们遵守BitTorrent点对点协议原则,任何版权问题请联系原资源发布商,我们不处理任何版权纠纷,谢谢!如有争议请联系邮箱:BT9527#hotmail.com(#换成@)
3、如果您发现某页面或地址有错误,请联系站长邮箱BT9527#hotmail.com(#换成@),我们会尽快处理。您的热心是对BT9527电影天堂最大的支持。
4、本站建议去正规影院观看电影以支持电影行业发展。
最新回复 (0)

你可以在 登录 or 注册 后,对此帖发表评论!

返回