黑豹2[简繁英双语字幕].Black.Panther.Wakanda.Forever.2022.2160p.UHD.BluRay.REMUX.HDR.HEVC.Atmos.TrueHD.7.1-HETHD 53.17GB

版主小s 1月前 371

✔资源类型:BD-4K   ✔电影年份:2022   ✔电影地区:欧美   ✔电影分类:剧情

◎标  题 黑豹2
◎译  名 黑豹:瓦坎达万岁 / 黑豹2:瓦干达万岁(港 / 台) / Black Panther 2 / Black Panther II
◎片  名 Black Panther: Wakanda Forever
◎年  代 2022
◎产  地 美国
◎类  别 剧情 / 动作 / 科幻 / 冒险
◎语  言 英语
◎上映日期 2023-02-07(中国大陆) / 2022-11-09(中国台湾) / 2022-11-11(美国)
◎IMDb评分 7.2/10 (139221人评价)
◎IMDb链接 https://www.imdb.com/title/tt9114286/
◎豆瓣评分 6.3/10 (14376人评价)
◎豆瓣链接 https://movie.douban.com/subject/30167997/
◎片  长 161分钟
◎导  演 瑞恩·库格勒 Ryan Coogler
◎编  剧 瑞恩·库格勒 Ryan Coogler
       乔·罗伯特·科尔 Joe Robert Cole
       斯坦·李 Stan Lee
◎演  员 利蒂希娅·赖特 Letitia Wright
       露皮塔·尼永奥 Lupita Nyong'o
       安吉拉·贝塞特 Angela Bassett
       丹娜·奎里拉 Danai Gurira
       温斯顿·杜克 Winston Duke
       马丁·弗瑞曼 Martin Freeman
       特诺切·韦尔塔 Tenoch Huerta
       理查德·希夫 Richard Schiff
       多米尼克·索恩 Dominique Thorne
       米凯拉·科尔 Michaela Coel
       弗洛伦丝·卡松巴 Florence Kasumba
       玛丽亚·梅塞德斯·科罗伊 María Mercedes Coroy
       伊萨赫·德·班克尔 Isaach De Bankolé
       施奎塔·詹姆斯 Shiquita James
       胡安·卡洛斯·坎图 Juan Carlos Cantu
       洁基伯明翰 Gigi Bermingham
       索佩·阿卢科 Sope Aluko
       小弗洛伊德·安东尼·约翰 Floyd Anthony Johns Jr.
       布伦特·莫雷尔·加斯金斯 Brent Moorer Gaskins
       拉希姆·赖利 Rahiem Riley
       乔丹·沃克·罗斯 Jordan Walker Ross
       Kamaru Usman Kamaru Usman
       梅布尔·卡德纳 Mabel Cadena
        Alex Livinalli

◎简  介
    在“黑豹”特查拉国王不幸去世后,苏睿(利蒂希娅·赖特 Letitia Wright 饰)、奥克耶(丹娜·奎里拉 Danai Gurira 饰)、拉玛达王太后(安吉拉·贝塞特 Angela Bassett 饰)、姆巴库(温斯顿·杜克 Winston Duke 饰)为了保护瓦坎达而战。瓦坎达人努力迎接他们的新篇章,他们必须在娜吉雅(露皮塔·尼永奥 Lupita Nyong'o 饰)和罗斯探员(马丁·弗瑞曼 Martin Freeman 饰)的帮助下团结起来,为瓦坎达王国开辟新道路。
  1. ##### MediaInfo ######
  2. General
  3. Unique ID                                : 216224568517734151796053950534722749 (0x29A4B1BDDB8370BB8D88969F6724BD)
  4. Complete name                            : Black.Panther.Wakanda.Forever.2022.2160p.UHD.BluRay.REMUX.HDR.HEVC.Atmos.TrueHD.7.1-HETHD.mkv
  5. Format                                   : Matroska
  6. Format version                           : Version 2
  7. File size                                : 53.2 GiB
  8. Duration                                 : 2 h 41 min
  9. Overall bit rate mode                    : Variable
  10. Overall bit rate                         : 47.2 Mb/s
  11. Movie name                               : Black Panther Wakanda Forever
  12. Encoded date                             : UTC 2023-02-01 02:30:43
  13. Writing application                      : MakeMKV v1.17.2 win(x64-release)
  14. Writing library                          : libmakemkv v1.17.2 (1.3.10/1.5.2) win(x64-release)
  15. Cover                                    : Yes
  16. Attachments                              : cover.jpg

  17. Video
  18. ID                                       : 1
  19. ID in the original source medium         : 4113 (0x1011)
  20. Format                                   : HEVC
  21. Format/Info                              : High Efficiency Video Coding
  22. Format profile                           : Main 10@L5.1@High
  23. HDR format                               : SMPTE ST 2086, HDR10 compatible
  24. Codec ID                                 : V_MPEGH/ISO/HEVC
  25. Duration                                 : 2 h 41 min
  26. Bit rate                                 : 41.7 Mb/s
  27. Width                                    : 3 840 pixels
  28. Height                                   : 2 160 pixels
  29. Display aspect ratio                     : 16:9
  30. Frame rate mode                          : Constant
  31. Frame rate                               : 23.976 (24000/1001) FPS
  32. Color space                              : YUV
  33. Chroma subsampling                       : 4:2:0 (Type 2)
  34. Bit depth                                : 10 bits
  35. Bits/(Pixel*Frame)                       : 0.209
  36. Stream size                              : 46.9 GiB (88%)
  37. Writing library                          : ATEME Titan File 3.9.6 (4.9.6.2)        
  38. Language                                 : English
  39. Default                                  : No
  40. Forced                                   : No
  41. Color range                              : Limited
  42. Color primaries                          : BT.2020
  43. Transfer characteristics                 : PQ
  44. Matrix coefficients                      : BT.2020 non-constant
  45. Mastering display color primaries        : BT.2020
  46. Mastering display luminance              : min: 0.0050 cd/m2, max: 1000 cd/m2
  47. Original source medium                   : Blu-ray

  48. Audio #1
  49. ID                                       : 2
  50. ID in the original source medium         : 4352 (0x1100)
  51. Format                                   : MLP FBA 16-ch
  52. Format/Info                              : Meridian Lossless Packing FBA with 16-channel presentation
  53. Commercial name                          : Dolby TrueHD with Dolby Atmos
  54. Codec ID                                 : A_TRUEHD
  55. Duration                                 : 2 h 41 min
  56. Bit rate mode                            : Variable
  57. Bit rate                                 : 4 689 kb/s
  58. Maximum bit rate                         : 7 758 kb/s
  59. Channel(s)                               : 8 channels
  60. Channel layout                           : L R C LFE Ls Rs Lb Rb
  61. Sampling rate                            : 48.0 kHz
  62. Frame rate                               : 1 200.000 FPS (40 SPF)
  63. Bit depth                                : 24 bits
  64. Compression mode                         : Lossless
  65. Stream size                              : 5.28 GiB (10%)
  66. Title                                    : 环绕声 7.1
  67. Language                                 : English
  68. Default                                  : Yes
  69. Forced                                   : No
  70. Original source medium                   : Blu-ray
  71. Number of dynamic objects                : 13
  72. Bed channel count                        : 1 channel
  73. Bed channel configuration                : LFE

  74. Audio #2
  75. ID                                       : 3
  76. ID in the original source medium         : 4352 (0x1100)
  77. Format                                   : AC-3
  78. Format/Info                              : Audio Coding 3
  79. Commercial name                          : Dolby Digital
  80. Codec ID                                 : A_AC3
  81. Duration                                 : 2 h 41 min
  82. Bit rate mode                            : Constant
  83. Bit rate                                 : 640 kb/s
  84. Channel(s)                               : 6 channels
  85. Channel layout                           : L R C LFE Ls Rs
  86. Sampling rate                            : 48.0 kHz
  87. Frame rate                               : 31.250 FPS (1536 SPF)
  88. Compression mode                         : Lossy
  89. Stream size                              : 738 MiB (1%)
  90. Title                                    : 环绕声 5.1
  91. Language                                 : English
  92. Service kind                             : Complete Main
  93. Default                                  : No
  94. Forced                                   : No
  95. Original source medium                   : Blu-ray

  96. Text #1
  97. ID                                       : 4
  98. ID in the original source medium         : 4768 (0x12A0)
  99. Format                                   : PGS
  100. Codec ID                                 : S_HDMV/PGS
  101. Codec ID/Info                            : Picture based subtitle format used on BDs/HD-DVDs
  102. Duration                                 : 2 h 38 min
  103. Bit rate                                 : 38.5 kb/s
  104. Count of elements                        : 4856
  105. Stream size                              : 43.6 MiB (0%)
  106. Language                                 : English
  107. Default                                  : Yes
  108. Forced                                   : No
  109. Original source medium                   : Blu-ray

  110. Text #2
  111. ID                                       : 5
  112. ID in the original source medium         : 4769 (0x12A1)
  113. Format                                   : PGS
  114. Codec ID                                 : S_HDMV/PGS
  115. Codec ID/Info                            : Picture based subtitle format used on BDs/HD-DVDs
  116. Duration                                 : 2 h 41 min
  117. Bit rate                                 : 27.3 kb/s
  118. Count of elements                        : 3476
  119. Stream size                              : 31.5 MiB (0%)
  120. Language                                 : Spanish
  121. Default                                  : No
  122. Forced                                   : No
  123. Original source medium                   : Blu-ray

  124. Text #3
  125. ID                                       : 6
  126. ID in the original source medium         : 4771 (0x12A3)
  127. Format                                   : PGS
  128. Codec ID                                 : S_HDMV/PGS
  129. Codec ID/Info                            : Picture based subtitle format used on BDs/HD-DVDs
  130. Duration                                 : 2 h 41 min
  131. Bit rate                                 : 26.0 kb/s
  132. Count of elements                        : 3559
  133. Stream size                              : 29.9 MiB (0%)
  134. Title                                    : 简体中字
  135. Language                                 : Chinese
  136. Default                                  : No
  137. Forced                                   : No
  138. Original source medium                   : Blu-ray

  139. Text #4
  140. ID                                       : 7
  141. ID in the original source medium         : 4772 (0x12A4)
  142. Format                                   : PGS
  143. Codec ID                                 : S_HDMV/PGS
  144. Codec ID/Info                            : Picture based subtitle format used on BDs/HD-DVDs
  145. Duration                                 : 2 h 41 min
  146. Bit rate                                 : 26.8 kb/s
  147. Count of elements                        : 3559
  148. Stream size                              : 30.9 MiB (0%)
  149. Title                                    : 繁体中字
  150. Language                                 : Chinese
  151. Default                                  : No
  152. Forced                                   : No
  153. Original source medium                   : Blu-ray

  154. Text #5
  155. ID                                       : 8
  156. ID in the original source medium         : 4773 (0x12A5)
  157. Format                                   : PGS
  158. Codec ID                                 : S_HDMV/PGS
  159. Codec ID/Info                            : Picture based subtitle format used on BDs/HD-DVDs
  160. Duration                                 : 2 h 41 min
  161. Bit rate                                 : 38.8 kb/s
  162. Count of elements                        : 3576
  163. Stream size                              : 44.7 MiB (0%)
  164. Title                                    : 简英双语
  165. Language                                 : Chinese
  166. Default                                  : No
  167. Forced                                   : No
  168. Original source medium                   : Blu-ray

  169. Text #6
  170. ID                                       : 9
  171. ID in the original source medium         : 4774 (0x12A6)
  172. Format                                   : PGS
  173. Codec ID                                 : S_HDMV/PGS
  174. Codec ID/Info                            : Picture based subtitle format used on BDs/HD-DVDs
  175. Duration                                 : 2 h 41 min
  176. Bit rate                                 : 39.1 kb/s
  177. Count of elements                        : 3576
  178. Stream size                              : 45.0 MiB (0%)
  179. Title                                    : 繁英双语
  180. Language                                 : Chinese
  181. Default                                  : No
  182. Forced                                   : No
  183. Original source medium                   : Blu-ray

  184. Menu
  185. 00:00:00.000                             : en:Chapter 01
  186. 00:06:23.716                             : en:Chapter 02
  187. 00:11:47.581                             : en:Chapter 03
  188. 00:18:45.916                             : en:Chapter 04
  189. 00:23:16.478                             : en:Chapter 05
  190. 00:29:52.373                             : en:Chapter 06
  191. 00:33:12.949                             : en:Chapter 07
  192. 00:35:17.740                             : en:Chapter 08
  193. 00:39:53.933                             : en:Chapter 09
  194. 00:46:41.465                             : en:Chapter 10
  195. 00:53:11.021                             : en:Chapter 11
  196. 00:58:20.997                             : en:Chapter 12
  197. 01:02:33.166                             : en:Chapter 13
  198. 01:04:52.388                             : en:Chapter 14
  199. 01:12:35.434                             : en:Chapter 15
  200. 01:21:47.193                             : en:Chapter 16
  201. 01:28:29.345                             : en:Chapter 17
  202. 01:40:23.976                             : en:Chapter 18
  203. 01:44:44.987                             : en:Chapter 19
  204. 01:53:09.407                             : en:Chapter 20
  205. 01:58:03.534                             : en:Chapter 21
  206. 02:04:36.093                             : en:Chapter 22
  207. 02:10:13.514                             : en:Chapter 23
  208. 02:19:33.239                             : en:Chapter 24
  209. 02:24:00.882                             : en:Chapter 25
  210. 02:31:27.369                             : en:Chapter 26
  211. 02:33:54.308                             : en:Chapter 27


下载地址:

Black.Panther.Wakanda.Forever.2022.2160p.UHD.BluRay.REMUX.HDR.HEVC.Atmos.TrueHD..torrent

BT9527电影天堂 1、BT9527电影天堂提供的BT文件均来源于互联网抓取,只供网友学习交流、技术提升使用。
2、我们遵守BitTorrent点对点协议原则,任何版权问题请联系原资源发布商,我们不处理任何版权纠纷,谢谢!如有争议请联系邮箱:BT9527#hotmail.com(#换成@)
3、如果您发现某页面或地址有错误,请联系站长邮箱BT9527#hotmail.com(#换成@),我们会尽快处理。您的热心是对BT9527电影天堂最大的支持。
4、本站建议去正规影院观看电影以支持电影行业发展。
最新回复 (0)

你可以在 登录 or 注册 后,对此帖发表评论!

返回