相信我:被诱拐的丽莎·麦克维[简繁英字幕].Believe.Me.The.Abduction.of.Lisa.McVey.2018.1080p.NF.WEB-DL.DDP5.1.x264-MOMOWEB 3.33GB

版主小s 6月前 1115

✔资源类型:WEB-1080P   ✔电影年份:2018   ✔电影地区:其他   ✔电影分类:剧情

◎标  题 相信我:被诱拐的丽莎·麦克维
◎译  名 相信我:莉莎·麦克斯韦的故事
◎片  名 Believe Me: The Abduction of Lisa McVey
◎年  代 2018
◎产  地 加拿大
◎语  言 英语
◎上映日期 2018-09-30(美国)
◎IMDb评分 7.2/10 (13585人评价)
◎IMDb链接 https://www.imdb.com/title/tt9072202/
◎豆瓣链接 https://movie.douban.com/subject/30347017/
◎片  长 88分钟

◎简  介
    一名17岁的少女在她计划自杀的当晚被绑架,她必须为活下去而战斗。她设法说服袭击者放过她,在经过26小时后等来了生机。但当她回家时,除了一名怀疑凶手为连环杀手的侦探外,没有人相信她的故事。                                    
                                  影片改编自可怕的真实事件。
  1. ##### MediaInfo ######
  2. General
  3. Unique ID                                : 46331362169957130744472451416637786648 (0x22DB1884D301501B5BB4293D7B334A18)
  4. Complete name                            : Believe.Me.The.Abduction.of.Lisa.McVey.2018.1080p.NF.WEB-DL.DDP5.1.x264-MOMOWEB.mkv
  5. Format                                   : Matroska
  6. Format version                           : Version 4
  7. File size                                : 3.33 GiB
  8. Duration                                 : 1 h 27 min
  9. Overall bit rate mode                    : Variable
  10. Overall bit rate                         : 5 426 kb/s
  11. Movie name                               : Believe.Me.The.Abduction.of.Lisa.McVey.2018.1080p.NF.WEB-DL.DDP5.1.x264-PTerWEB
  12. Encoded date                             : UTC 2023-03-12 10:27:53
  13. Writing application                      : mkvmerge v74.0.0 ('You Oughta Know') 64-bit
  14. Writing library                          : libebml v1.4.4 + libmatroska v1.7.1

  15. Video
  16. ID                                       : 1
  17. Format                                   : AVC
  18. Format/Info                              : Advanced Video Codec
  19. Format profile                           : High@L4
  20. Format settings                          : CABAC / 4 Ref Frames
  21. Format settings, CABAC                   : Yes
  22. Format settings, Reference frames        : 4 frames
  23. Codec ID                                 : V_MPEG4/ISO/AVC
  24. Duration                                 : 1 h 27 min
  25. Bit rate mode                            : Variable
  26. Bit rate                                 : 4 782 kb/s
  27. Maximum bit rate                         : 20.0 Mb/s
  28. Width                                    : 1 920 pixels
  29. Height                                   : 1 080 pixels
  30. Display aspect ratio                     : 16:9
  31. Frame rate mode                          : Constant
  32. Frame rate                               : 23.976 (24000/1001) FPS
  33. Color space                              : YUV
  34. Chroma subsampling                       : 4:2:0
  35. Bit depth                                : 8 bits
  36. Scan type                                : Progressive
  37. Bits/(Pixel*Frame)                       : 0.096
  38. Stream size                              : 2.93 GiB (88%)
  39. Writing library                          : x264 core 148 r2722 1b0121b
  40. Encoding settings                        : cabac=1 / ref=4 / deblock=1:0:0 / analyse=0x3:0x111 / me=umh / subme=10 / psy=1 / psy_rd=1.00:0.00 / mixed_ref=1 / me_range=120 / chroma_me=1 / trellis=2 / 8x8dct=1 / cqm=0 / deadzone=21,11 / fast_pskip=1 / chroma_qp_offset=-2 / threads=8 / lookahead_threads=2 / sliced_threads=0 / nr=0 / decimate=1 / interlaced=0 / bluray_compat=0 / stitchable=1 / constrained_intra=0 / bframes=16 / b_pyramid=2 / b_adapt=2 / b_bias=0 / direct=3 / weightb=1 / open_gop=0 / weightp=2 / keyint=240 / keyint_min=121 / scenecut=0 / intra_refresh=0 / rc_lookahead=240 / rc=crf / mbtree=1 / crf=20.0 / qcomp=0.50 / qpmin=6 / qpmax=51 / qpstep=4 / vbv_maxrate=20000 / vbv_bufsize=25000 / crf_max=0.0 / nal_hrd=vbr / filler=0 / ip_ratio=1.40 / aq=1:0.80
  41. Default                                  : Yes
  42. Forced                                   : No

  43. Audio
  44. ID                                       : 2
  45. Format                                   : E-AC-3
  46. Format/Info                              : Enhanced AC-3
  47. Commercial name                          : Dolby Digital Plus
  48. Codec ID                                 : A_EAC3
  49. Duration                                 : 1 h 27 min
  50. Bit rate mode                            : Constant
  51. Bit rate                                 : 640 kb/s
  52. Channel(s)                               : 6 channels
  53. Channel layout                           : L R C LFE Ls Rs
  54. Sampling rate                            : 48.0 kHz
  55. Frame rate                               : 31.250 FPS (1536 SPF)
  56. Compression mode                         : Lossy
  57. Stream size                              : 402 MiB (12%)
  58. Title                                    : English [Original]
  59. Language                                 : English
  60. Service kind                             : Complete Main
  61. Default                                  : Yes
  62. Forced                                   : No

  63. Text #1
  64. ID                                       : 3
  65. Format                                   : UTF-8
  66. Codec ID                                 : S_TEXT/UTF8
  67. Codec ID/Info                            : UTF-8 Plain Text
  68. Duration                                 : 1 h 27 min
  69. Bit rate                                 : 78 b/s
  70. Count of elements                        : 1019
  71. Stream size                              : 50.4 KiB (0%)
  72. Title                                    : Arabic
  73. Language                                 : Arabic
  74. Default                                  : No
  75. Forced                                   : No

  76. Text #2
  77. ID                                       : 4
  78. Format                                   : UTF-8
  79. Codec ID                                 : S_TEXT/UTF8
  80. Codec ID/Info                            : UTF-8 Plain Text
  81. Duration                                 : 1 h 27 min
  82. Bit rate                                 : 42 b/s
  83. Count of elements                        : 1015
  84. Stream size                              : 27.6 KiB (0%)
  85. Title                                    : Czech
  86. Language                                 : Czech
  87. Default                                  : No
  88. Forced                                   : No

  89. Text #3
  90. ID                                       : 5
  91. Format                                   : UTF-8
  92. Codec ID                                 : S_TEXT/UTF8
  93. Codec ID/Info                            : UTF-8 Plain Text
  94. Duration                                 : 1 h 27 min
  95. Bit rate                                 : 44 b/s
  96. Count of elements                        : 938
  97. Stream size                              : 28.7 KiB (0%)
  98. Title                                    : Danish
  99. Language                                 : Danish
  100. Default                                  : No
  101. Forced                                   : No

  102. Text #4
  103. ID                                       : 6
  104. Format                                   : UTF-8
  105. Codec ID                                 : S_TEXT/UTF8
  106. Codec ID/Info                            : UTF-8 Plain Text
  107. Duration                                 : 1 h 27 min
  108. Bit rate                                 : 44 b/s
  109. Count of elements                        : 1011
  110. Stream size                              : 28.1 KiB (0%)
  111. Title                                    : German
  112. Language                                 : German
  113. Default                                  : No
  114. Forced                                   : No

  115. Text #5
  116. ID                                       : 7
  117. Format                                   : UTF-8
  118. Codec ID                                 : S_TEXT/UTF8
  119. Codec ID/Info                            : UTF-8 Plain Text
  120. Duration                                 : 1 h 27 min
  121. Bit rate                                 : 73 b/s
  122. Count of elements                        : 1012
  123. Stream size                              : 47.0 KiB (0%)
  124. Title                                    : Greek
  125. Language                                 : Greek
  126. Default                                  : No
  127. Forced                                   : No

  128. Text #6
  129. ID                                       : 8
  130. Format                                   : UTF-8
  131. Codec ID                                 : S_TEXT/UTF8
  132. Codec ID/Info                            : UTF-8 Plain Text
  133. Duration                                 : 1 h 26 min
  134. Bit rate                                 : 53 b/s
  135. Count of elements                        : 1093
  136. Stream size                              : 33.8 KiB (0%)
  137. Title                                    : English [CC]
  138. Language                                 : English
  139. Default                                  : No
  140. Forced                                   : No

  141. Text #7
  142. ID                                       : 9
  143. Format                                   : UTF-8
  144. Codec ID                                 : S_TEXT/UTF8
  145. Codec ID/Info                            : UTF-8 Plain Text
  146. Duration                                 : 1 h 27 min
  147. Bit rate                                 : 43 b/s
  148. Count of elements                        : 1016
  149. Stream size                              : 27.7 KiB (0%)
  150. Title                                    : Spanish
  151. Language                                 : Spanish
  152. Default                                  : No
  153. Forced                                   : No

  154. Text #8
  155. ID                                       : 10
  156. Format                                   : UTF-8
  157. Codec ID                                 : S_TEXT/UTF8
  158. Codec ID/Info                            : UTF-8 Plain Text
  159. Duration                                 : 1 h 27 min
  160. Bit rate                                 : 43 b/s
  161. Count of elements                        : 1004
  162. Stream size                              : 28.1 KiB (0%)
  163. Title                                    : European Spanish
  164. Language                                 : Spanish
  165. Default                                  : No
  166. Forced                                   : No

  167. Text #9
  168. ID                                       : 11
  169. Format                                   : UTF-8
  170. Codec ID                                 : S_TEXT/UTF8
  171. Codec ID/Info                            : UTF-8 Plain Text
  172. Duration                                 : 1 h 27 min
  173. Bit rate                                 : 44 b/s
  174. Count of elements                        : 846
  175. Stream size                              : 28.3 KiB (0%)
  176. Title                                    : Finnish
  177. Language                                 : Finnish
  178. Default                                  : No
  179. Forced                                   : No

  180. Text #10
  181. ID                                       : 12
  182. Format                                   : UTF-8
  183. Codec ID                                 : S_TEXT/UTF8
  184. Codec ID/Info                            : UTF-8 Plain Text
  185. Duration                                 : 1 h 27 min
  186. Bit rate                                 : 44 b/s
  187. Count of elements                        : 946
  188. Stream size                              : 28.7 KiB (0%)
  189. Title                                    : French
  190. Language                                 : French
  191. Default                                  : No
  192. Forced                                   : No

  193. Text #11
  194. ID                                       : 13
  195. Format                                   : UTF-8
  196. Codec ID                                 : S_TEXT/UTF8
  197. Codec ID/Info                            : UTF-8 Plain Text
  198. Duration                                 : 1 h 27 min
  199. Bit rate                                 : 75 b/s
  200. Count of elements                        : 1019
  201. Stream size                              : 48.5 KiB (0%)
  202. Title                                    : Hebrew
  203. Language                                 : Hebrew
  204. Default                                  : No
  205. Forced                                   : No

  206. Text #12
  207. ID                                       : 14
  208. Format                                   : UTF-8
  209. Codec ID                                 : S_TEXT/UTF8
  210. Codec ID/Info                            : UTF-8 Plain Text
  211. Duration                                 : 1 h 27 min
  212. Bit rate                                 : 121 b/s
  213. Count of elements                        : 1021
  214. Stream size                              : 77.8 KiB (0%)
  215. Title                                    : Hindi
  216. Language                                 : Hindi
  217. Default                                  : No
  218. Forced                                   : No

  219. Text #13
  220. ID                                       : 15
  221. Format                                   : UTF-8
  222. Codec ID                                 : S_TEXT/UTF8
  223. Codec ID/Info                            : UTF-8 Plain Text
  224. Duration                                 : 1 h 27 min
  225. Bit rate                                 : 45 b/s
  226. Count of elements                        : 1014
  227. Stream size                              : 29.5 KiB (0%)
  228. Title                                    : Hungarian
  229. Language                                 : Hungarian
  230. Default                                  : No
  231. Forced                                   : No

  232. Text #14
  233. ID                                       : 16
  234. Format                                   : UTF-8
  235. Codec ID                                 : S_TEXT/UTF8
  236. Codec ID/Info                            : UTF-8 Plain Text
  237. Duration                                 : 1 h 27 min
  238. Bit rate                                 : 45 b/s
  239. Count of elements                        : 913
  240. Stream size                              : 28.9 KiB (0%)
  241. Title                                    : Indonesian
  242. Language                                 : Indonesian
  243. Default                                  : No
  244. Forced                                   : No

  245. Text #15
  246. ID                                       : 17
  247. Format                                   : UTF-8
  248. Codec ID                                 : S_TEXT/UTF8
  249. Codec ID/Info                            : UTF-8 Plain Text
  250. Duration                                 : 1 h 27 min
  251. Bit rate                                 : 44 b/s
  252. Count of elements                        : 1013
  253. Stream size                              : 28.3 KiB (0%)
  254. Title                                    : Italian
  255. Language                                 : Italian
  256. Default                                  : No
  257. Forced                                   : No

  258. Text #16
  259. ID                                       : 18
  260. Format                                   : UTF-8
  261. Codec ID                                 : S_TEXT/UTF8
  262. Codec ID/Info                            : UTF-8 Plain Text
  263. Duration                                 : 1 h 27 min
  264. Bit rate                                 : 34 b/s
  265. Count of elements                        : 977
  266. Stream size                              : 21.9 KiB (0%)
  267. Title                                    : Japanese
  268. Language                                 : Japanese
  269. Default                                  : No
  270. Forced                                   : No

  271. Text #17
  272. ID                                       : 19
  273. Format                                   : UTF-8
  274. Codec ID                                 : S_TEXT/UTF8
  275. Codec ID/Info                            : UTF-8 Plain Text
  276. Duration                                 : 1 h 27 min
  277. Bit rate                                 : 49 b/s
  278. Count of elements                        : 1020
  279. Stream size                              : 31.7 KiB (0%)
  280. Title                                    : Korean
  281. Language                                 : Korean
  282. Default                                  : No
  283. Forced                                   : No

  284. Text #18
  285. ID                                       : 20
  286. Format                                   : UTF-8
  287. Codec ID                                 : S_TEXT/UTF8
  288. Codec ID/Info                            : UTF-8 Plain Text
  289. Duration                                 : 1 h 27 min
  290. Bit rate                                 : 41 b/s
  291. Count of elements                        : 952
  292. Stream size                              : 26.6 KiB (0%)
  293. Title                                    : Norwegian
  294. Language                                 : Norwegian Bokmal
  295. Default                                  : No
  296. Forced                                   : No

  297. Text #19
  298. ID                                       : 21
  299. Format                                   : UTF-8
  300. Codec ID                                 : S_TEXT/UTF8
  301. Codec ID/Info                            : UTF-8 Plain Text
  302. Duration                                 : 1 h 27 min
  303. Bit rate                                 : 40 b/s
  304. Count of elements                        : 864
  305. Stream size                              : 26.1 KiB (0%)
  306. Title                                    : Dutch
  307. Language                                 : Dutch
  308. Default                                  : No
  309. Forced                                   : No

  310. Text #20
  311. ID                                       : 22
  312. Format                                   : UTF-8
  313. Codec ID                                 : S_TEXT/UTF8
  314. Codec ID/Info                            : UTF-8 Plain Text
  315. Duration                                 : 1 h 27 min
  316. Bit rate                                 : 37 b/s
  317. Count of elements                        : 1011
  318. Stream size                              : 24.4 KiB (0%)
  319. Title                                    : Polish
  320. Language                                 : Polish
  321. Default                                  : No
  322. Forced                                   : No

  323. Text #21
  324. ID                                       : 23
  325. Format                                   : UTF-8
  326. Codec ID                                 : S_TEXT/UTF8
  327. Codec ID/Info                            : UTF-8 Plain Text
  328. Duration                                 : 1 h 27 min
  329. Bit rate                                 : 44 b/s
  330. Count of elements                        : 1014
  331. Stream size                              : 28.2 KiB (0%)
  332. Title                                    : Portuguese
  333. Language                                 : Portuguese
  334. Default                                  : No
  335. Forced                                   : No

  336. Text #22
  337. ID                                       : 24
  338. Format                                   : UTF-8
  339. Codec ID                                 : S_TEXT/UTF8
  340. Codec ID/Info                            : UTF-8 Plain Text
  341. Duration                                 : 1 h 27 min
  342. Bit rate                                 : 45 b/s
  343. Count of elements                        : 917
  344. Stream size                              : 29.4 KiB (0%)
  345. Title                                    : Brazilian Portuguese
  346. Language                                 : Portuguese
  347. Default                                  : No
  348. Forced                                   : No

  349. Text #23
  350. ID                                       : 25
  351. Format                                   : UTF-8
  352. Codec ID                                 : S_TEXT/UTF8
  353. Codec ID/Info                            : UTF-8 Plain Text
  354. Duration                                 : 1 h 27 min
  355. Bit rate                                 : 45 b/s
  356. Count of elements                        : 1014
  357. Stream size                              : 29.1 KiB (0%)
  358. Title                                    : Romanian
  359. Language                                 : Romanian
  360. Default                                  : No
  361. Forced                                   : No

  362. Text #24
  363. ID                                       : 26
  364. Format                                   : UTF-8
  365. Codec ID                                 : S_TEXT/UTF8
  366. Codec ID/Info                            : UTF-8 Plain Text
  367. Duration                                 : 1 h 27 min
  368. Bit rate                                 : 75 b/s
  369. Count of elements                        : 1018
  370. Stream size                              : 48.5 KiB (0%)
  371. Title                                    : Russian
  372. Language                                 : Russian
  373. Default                                  : No
  374. Forced                                   : No

  375. Text #25
  376. ID                                       : 27
  377. Format                                   : UTF-8
  378. Codec ID                                 : S_TEXT/UTF8
  379. Codec ID/Info                            : UTF-8 Plain Text
  380. Duration                                 : 1 h 27 min
  381. Bit rate                                 : 44 b/s
  382. Count of elements                        : 976
  383. Stream size                              : 28.4 KiB (0%)
  384. Title                                    : Swedish
  385. Language                                 : Swedish
  386. Default                                  : No
  387. Forced                                   : No

  388. Text #26
  389. ID                                       : 28
  390. Format                                   : UTF-8
  391. Codec ID                                 : S_TEXT/UTF8
  392. Codec ID/Info                            : UTF-8 Plain Text
  393. Duration                                 : 1 h 27 min
  394. Bit rate                                 : 110 b/s
  395. Count of elements                        : 1018
  396. Stream size                              : 71.2 KiB (0%)
  397. Title                                    : Thai
  398. Language                                 : Thai
  399. Default                                  : No
  400. Forced                                   : No

  401. Text #27
  402. ID                                       : 29
  403. Format                                   : UTF-8
  404. Codec ID                                 : S_TEXT/UTF8
  405. Codec ID/Info                            : UTF-8 Plain Text
  406. Duration                                 : 1 h 27 min
  407. Bit rate                                 : 45 b/s
  408. Count of elements                        : 1014
  409. Stream size                              : 29.2 KiB (0%)
  410. Title                                    : Turkish
  411. Language                                 : Turkish
  412. Default                                  : No
  413. Forced                                   : No

  414. Text #28
  415. ID                                       : 30
  416. Format                                   : UTF-8
  417. Codec ID                                 : S_TEXT/UTF8
  418. Codec ID/Info                            : UTF-8 Plain Text
  419. Duration                                 : 1 h 27 min
  420. Bit rate                                 : 71 b/s
  421. Count of elements                        : 1017
  422. Stream size                              : 45.9 KiB (0%)
  423. Title                                    : Ukrainian
  424. Language                                 : Ukrainian
  425. Default                                  : No
  426. Forced                                   : No

  427. Text #29
  428. ID                                       : 31
  429. Format                                   : UTF-8
  430. Codec ID                                 : S_TEXT/UTF8
  431. Codec ID/Info                            : UTF-8 Plain Text
  432. Duration                                 : 1 h 27 min
  433. Bit rate                                 : 56 b/s
  434. Count of elements                        : 1013
  435. Stream size                              : 36.0 KiB (0%)
  436. Title                                    : Vietnamese
  437. Language                                 : Vietnamese
  438. Default                                  : No
  439. Forced                                   : No

  440. Text #30
  441. ID                                       : 32
  442. Format                                   : UTF-8
  443. Codec ID                                 : S_TEXT/UTF8
  444. Codec ID/Info                            : UTF-8 Plain Text
  445. Duration                                 : 1 h 27 min
  446. Bit rate                                 : 42 b/s
  447. Count of elements                        : 1019
  448. Stream size                              : 27.2 KiB (0%)
  449. Title                                    : Simplified Chinese
  450. Language                                 : Chinese
  451. Default                                  : No
  452. Forced                                   : No

  453. Text #31
  454. ID                                       : 33
  455. Format                                   : UTF-8
  456. Codec ID                                 : S_TEXT/UTF8
  457. Codec ID/Info                            : UTF-8 Plain Text
  458. Duration                                 : 1 h 27 min
  459. Bit rate                                 : 40 b/s
  460. Count of elements                        : 1019
  461. Stream size                              : 26.3 KiB (0%)
  462. Title                                    : Traditional Chinese
  463. Language                                 : Chinese
  464. Default                                  : No
  465. Forced                                   : No




下载地址:

Believe.Me.The.Abduction.of.Lisa.McVey.2018.1080p.NF.WEB-DL.DDP5.1.x264-MOMOWEB.torrent

BT9527电影天堂 1、BT9527电影天堂提供的BT文件均来源于互联网抓取,只供网友学习交流、技术提升使用。
2、我们遵守BitTorrent点对点协议原则,任何版权问题请联系原资源发布商,我们不处理任何版权纠纷,谢谢!如有争议请联系邮箱:BT9527#hotmail.com(#换成@)
3、如果您发现某页面或地址有错误,请联系站长邮箱BT9527#hotmail.com(#换成@),我们会尽快处理。您的热心是对BT9527电影天堂最大的支持。
4、本站建议去正规影院观看电影以支持电影行业发展。
最新回复 (0)

你可以在 登录 or 注册 后,对此帖发表评论!

返回